Burn Out (2018) NF 1080p Latino

700 vistas
1 estrella2 estrellas3 estrellas4 estrellas5 estrellas (Ninguna valoración todavía)
Cargando…

Información de Burn Out (2018) NF 1080p Latino

Datos de la película

  • Calidad: WEBDL
  • Audio: Español Latino AC3 5.1 Netflix - Ingles AC3 5.1 Netflix
  • Subtitulos: Español Latino SRT- FORZADOS SRT
  • Resolución: 1920x1080
  • Formato: MKV
  • Codec: H.264
  • Encoder: Chesse92
  • Mediainfo: Clic para Mostrar Datos Ver
  • Burn Out (2018) NF 1080p Latino.mkv
    Format                      : Matroska
    Format version              : Version 4
    File size                   : 1.73 GiB
    Duration                    : 1 h 43 min
    Overall bit rate mode       : Variable
    Overall bit rate            : 2 382 kb/s
    Movie name                  : frontera
    Encoded date                : UTC 2019-03-15 07:14:09 / UTC 2019-03-05 21:43:49
    Writing application         : mkvmerge v11.0.0 ('Alive') 64bit
    Writing library             : libebml v1.3.4 + libmatroska v1.4.5 / Lavf58.0.0

    Video
    ID                          : 1
    Format                      : AVC
    Format/Info                 : Advanced Video Codec
    Format profile              : [email protected]
    Format settings             : CABAC / 4 Ref Frames
    Format settings, CABAC      : Yes
    Format settings, ReFrames   : 4 frames
    Codec ID                    : V_MPEG4/ISO/AVC
    Duration                    : 1 h 43 min
    Bit rate mode               : Variable
    Bit rate                    : 1 566 kb/s
    Maximum bit rate            : 20.0 Mb/s
    Width                       : 1 920 pixels
    Height                      : 1 080 pixels
    Display aspect ratio        : 16:9
    Frame rate mode             : Constant
    Frame rate                  : 24.000 FPS
    Color space                 : YUV
    Chroma subsampling          : 4:2:0
    Bit depth                   : 8 bits
    Scan type                   : Progressive
    Bits/(Pixel*Frame)          : 0.031
    Stream size                 : 1.14 GiB (66%)
    Title                       : CinemaniaHDD
    Writing library             : x264 core 148 r2715 7e75228
    Encoding settings           : cabac=1 / ref=4 / deblock=1:0:0 / analyse=0x3:0x111 / me=umh / subme=10 / psy=1 / psy_rd=1.00:0.00 / mixed_ref=1 / me_range=120 / chroma_me=1 / trellis=2 / 8x8dct=1 / cqm=0 / deadzone=21,11 / fast_pskip=1 / chroma_qp_offset=-2 / threads=8 / lookahead_threads=2 / sliced_threads=0 / nr=0 / decimate=1 / interlaced=0 / bluray_compat=0 / stitchable=1 / constrained_intra=0 / bframes=16 / b_pyramid=2 / b_adapt=2 / b_bias=0 / direct=3 / weightb=1 / open_gop=0 / weightp=2 / keyint=240 / keyint_min=121 / scenecut=0 / intra_refresh=0 / rc_lookahead=240 / rc=crf / mbtree=1 / crf=20.0 / qcomp=0.50 / qpmin=6 / qpmax=51 / qpstep=4 / vbv_maxrate=20000 / vbv_bufsize=25000 / crf_max=0.0 / nal_hrd=vbr / filler=0 / ip_ratio=1.40 / aq=1:0.80
    Default                     : Yes
    Forced                      : No
    Statistics Tags Issue       : mkvmerge v11.0.0 ('Alive') 64bit 2019-03-15 07:14:09 / mkvmerge v11.0.0 ('Alive') 64bit 2019-03-15 07:14:09 / UTC 2019-03-05 21:43:49
    FromStats_BitRate           : 1618119
    FromStats_Duration          : 01:43:19.917000000
    FromStats_FrameCount        : 148798
    FromStats_StreamSize        : 1254025464

    Audio #1
    ID                          : 2
    Format                      : AC-3
    Format/Info                 : Audio Coding 3
    Commercial name             : Dolby Digital
    Codec ID                    : A_AC3
    Duration                    : 1 h 43 min
    Bit rate mode               : Constant
    Bit rate                    : 384 kb/s
    Channel(s)                  : 6 channels
    Channel layout              : L R C LFE Ls Rs
    Sampling rate               : 48.0 kHz
    Frame rate                  : 31.250 FPS (1536 SPF)
    Bit depth                   : 16 bits
    Compression mode            : Lossy
    Stream size                 : 285 MiB (16%)
    Title                       : Español latino [CinemaniaHDD]
    Language                    : Spanish
    Service kind                : Complete Main
    Default                     : Yes
    Forced                      : No
    Encoded date                : UTC 2019-03-05 21:43:47
    Statistics Tags Issue       : mkvmerge v11.0.0 ('Alive') 64bit 2019-03-15 07:14:09 / mkvmerge v11.0.0 ('Alive') 64bit 2019-03-15 07:14:09 / UTC 2019-03-05 21:43:49
    FromStats_BitRate           : 384000
    FromStats_Duration          : 01:43:44.672000000
    FromStats_FrameCount        : 194521
    FromStats_StreamSize        : 298784256

    Audio #2
    ID                          : 3
    Format                      : AC-3
    Format/Info                 : Audio Coding 3
    Commercial name             : Dolby Digital
    Codec ID                    : A_AC3
    Duration                    : 1 h 43 min
    Bit rate mode               : Constant
    Bit rate                    : 384 kb/s
    Channel(s)                  : 6 channels
    Channel layout              : L R C LFE Ls Rs
    Sampling rate               : 48.0 kHz
    Frame rate                  : 31.250 FPS (1536 SPF)
    Bit depth                   : 16 bits
    Compression mode            : Lossy
    Stream size                 : 285 MiB (16%)
    Title                       : Inglés [CinemaniaHDD]
    Language                    : English
    Service kind                : Complete Main
    Default                     : No
    Forced                      : No
    Encoded date                : UTC 2019-03-05 21:43:49
    Statistics Tags Issue       : mkvmerge v11.0.0 ('Alive') 64bit 2019-03-15 07:14:09 / mkvmerge v11.0.0 ('Alive') 64bit 2019-03-15 07:14:09 / UTC 2019-03-05 21:43:49
    FromStats_BitRate           : 384000
    FromStats_Duration          : 01:43:44.672000000
    FromStats_FrameCount        : 194521
    FromStats_StreamSize        : 298784256

    Text #1
    ID                          : 4
    Format                      : UTF-8
    Codec ID                    : S_TEXT/UTF8
    Codec ID/Info               : UTF-8 Plain Text
    Title                       : Español latino [CinemaniaHDD]
    Language                    : Spanish
    Default                     : No
    Forced                      : No
    Statistics Tags Issue       : mkvmerge v11.0.0 ('Alive') 64bit 2019-03-15 07:14:09 / mkvmerge v11.0.0 ('Alive') 64bit 2019-03-15 07:14:09 / UTC 2019-03-05 21:43:49
    FromStats_BitRate           : 21
    FromStats_Duration          : 01:42:22.083000000
    FromStats_FrameCount        : 691
    FromStats_StreamSize        : 16686

    Text #2
    ID                          : 5
    Format                      : UTF-8
    Codec ID                    : S_TEXT/UTF8
    Codec ID/Info               : UTF-8 Plain Text
    Title                       : Forzados [CinemaniaHDD]
    Language                    : Spanish
    Default                     : Yes
    Forced                      : Yes
    Statistics Tags Issue       : mkvmerge v11.0.0 ('Alive') 64bit 2019-03-15 07:14:09 / mkvmerge v11.0.0 ('Alive') 64bit 2019-03-15 07:14:09 / UTC 2019-03-05 21:43:49
    FromStats_BitRate           : 0
    FromStats_Duration          : 01:42:25.875000000
    FromStats_FrameCount        : 12
    FromStats_StreamSize        : 319

  • Peso: 1.73 GiB

Sinopsis

Tony, un joven y prometedor piloto de motociclismo, se ve obligado a realizar carreras peligrosas de drogas para salvar a la madre de su hijo de un peligroso mafioso.

Ficha técnica

Video trailer de la película

Enlaces de descarga

Rip de Bluray

Descargar Burn Out (2018) NF 1080p Latino




Aportes de DPeliculasHDmega la pass es:dpeliculashdmega.org Aportes de CinemaniaHD la pass es:cinemaniahdd.com

Películas relacionadas

  • Bumbeblee (2018) Web-DL 4K HDR 2160p Latino

    2018
    Bumbeblee (2018) Web-DL 4K HDR 2160p Latino

    0.0 1h 54m 2018

    Sexta entrega de la saga 'Transformers', esta vez centrada en el "hermano pequeño" de los Autobots,...

    Director: Travis Knight

    Género: Acción

    Actores: Yianni Apostolopolous

  • The Mule (2018) 1080p Latino

    2018
    The Mule (2018) 1080p Latino

    0.0 1h 56m 2018

    A Earl Stone (Eastwood), un octogenario que está en quiebra, solo, y que se enfrenta a la ejecución...

    Director: Clint Eastwood

    Género: Crimen

    Actores: Victor Rasuk

  • Bumbeblee (2018) Web-DL 4K UHD 2160p Latino

    2018
    Bumbeblee (2018) Web-DL 4K UHD 2160p Latino

    0.0 1h 54m 2018

    Sexta entrega de la saga 'Transformers', esta vez centrada en el "hermano pequeño" de los Autobots,...

    Director: Travis Knight

    Género: Acción

    Actores: Yianni Apostolopolous

  • Aquaman (2018) 3D OU Full HD 1080p Latino

    2018
    Aquaman (2018) 3D OU Full HD 1080p Latino

    5.0 2h 24m 2018

    Un icono durante más de 70 años, Aquaman (Jason Momoa) es el Rey de los Siete Mares. Este reacio gobernante...

    Director: James Wan

    Género: 3D Half OU

    Actores: Yahya Abdul-Mateen II

  • Bumblebee (2018) AMZN WEB-DL 1080p Latino

    2018
    Bumblebee (2018) AMZN WEB-DL 1080p Latino

    3.3 1h 54m 2018

    Sexta entrega de la saga 'Transformers', esta vez centrada en el "hermano pequeño" de los Autobots,...

    Director: Travis Knight

    Género: Acción

    Actores: Yianni Apostolopolous

Comentarios 0