×

¿Problemas para descargar con Mozilla, EDGE? Deshabilita la opción "Abrir vinculos en una pestaña nueva" tal como lo muestra ésta imagen.

Burn (2019) 1080p Latino

1.177 vistas

Información de Burn (2019) 1080p Latino

Datos de la película

  • Calidad: 1080p
  • Audio: Español Latino AC3 2.0 Capturado - Ingles AC3 5.1 BLURAY
  • Subtitulos: Español Latino SRT- FORZADOS SRT
  • Resolución: 1920x1036
  • Formato: MKV
  • Codec: H.264
  • Encoder: CinemaniaHD
  • Mediainfo: Clic para Mostrar Datos Ver
  • Burn (2019) 1080p Latino.mkv
    Format                      : Matroska
    Format version              : Version 4
    File size                   : 2.51 GiB
    Duration                    : 1 h 28 min
    Overall bit rate            : 4 061 kb/s
    Movie name                  : Burn (2019) 1080p Latino
    Encoded date                : UTC 2020-04-14 13:48:32
    Writing application         : mkvmerge v42.0.0 ('Overtime') 64-bit
    Writing library             : libebml v1.3.10 + libmatroska v1.5.2 / Lavf58.20.100

    Video
    ID                          : 1
    Format                      : AVC
    Format/Info                 : Advanced Video Codec
    Format profile              : High@L4.1
    Format settings             : CABAC / 4 Ref Frames
    Format settings, CABAC      : Yes
    Format settings, ReFrames   : 4 frames
    Codec ID                    : V_MPEG4/ISO/AVC
    Duration                    : 1 h 28 min
    Bit rate                    : 3 500 kb/s
    Width                       : 1 920 pixels
    Height                      : 1 036 pixels
    Display aspect ratio        : 1.85:1
    Frame rate mode             : Constant
    Frame rate                  : 23.976 (24000/1001) FPS
    Color space                 : YUV
    Chroma subsampling          : 4:2:0
    Bit depth                   : 8 bits
    Scan type                   : Progressive
    Bits/(Pixel*Frame)          : 0.073
    Stream size                 : 2.07 GiB (83%)
    Title                       : CinemaniaHDD
    Writing library             : x264 core 157 r2935 545de2f
    Encoding settings           : cabac=1 / ref=4 / deblock=1:0:0 / analyse=0x3:0x113 / me=hex / subme=8 / psy=1 / psy_rd=1.00:0.00 / mixed_ref=1 / me_range=16 / chroma_me=1 / trellis=2 / 8x8dct=1 / cqm=0 / deadzone=21,11 / fast_pskip=1 / chroma_qp_offset=-2 / threads=32 / lookahead_threads=5 / sliced_threads=0 / nr=0 / decimate=1 / interlaced=0 / bluray_compat=0 / constrained_intra=0 / bframes=3 / b_pyramid=2 / b_adapt=1 / b_bias=0 / direct=3 / weightb=1 / open_gop=0 / weightp=2 / keyint=240 / keyint_min=24 / scenecut=40 / intra_refresh=0 / rc_lookahead=50 / rc=abr / mbtree=1 / bitrate=3500 / ratetol=1.0 / qcomp=0.60 / qpmin=0 / qpmax=69 / qpstep=4 / vbv_maxrate=62500 / vbv_bufsize=78125 / nal_hrd=none / filler=0 / ip_ratio=1.40 / aq=1:1.00
    Default                     : Yes
    Forced                      : No
    Color range                 : Limited
    Color primaries             : BT.709
    Transfer characteristics    : BT.709
    Matrix coefficients         : BT.709

    Audio #1
    ID                          : 2
    Format                      : AC-3
    Format/Info                 : Audio Coding 3
    Commercial name             : Dolby Digital
    Codec ID                    : A_AC3
    Duration                    : 1 h 28 min
    Bit rate mode               : Constant
    Bit rate                    : 256 kb/s
    Channel(s)                  : 2 channels
    Channel layout              : L R
    Sampling rate               : 48.0 kHz
    Frame rate                  : 31.250 FPS (1536 SPF)
    Bit depth                   : 16 bits
    Compression mode            : Lossy
    Delay relative to video     : -5 ms
    Stream size                 : 162 MiB (6%)
    Title                       : Español latino [CinemaniaHDD]
    Language                    : Spanish
    Service kind                : Complete Main
    Default                     : Yes
    Forced                      : No

    Audio #2
    ID                          : 3
    Format                      : AC-3
    Format/Info                 : Audio Coding 3
    Commercial name             : Dolby Digital
    Codec ID                    : A_AC3
    Duration                    : 1 h 28 min
    Bit rate mode               : Constant
    Bit rate                    : 448 kb/s
    Channel(s)                  : 6 channels
    Channel layout              : L R C LFE Ls Rs
    Sampling rate               : 48.0 kHz
    Frame rate                  : 31.250 FPS (1536 SPF)
    Bit depth                   : 16 bits
    Compression mode            : Lossy
    Delay relative to video     : -5 ms
    Stream size                 : 283 MiB (11%)
    Title                       : Inglés [CinemaniaHDD]
    Language                    : English
    Service kind                : Complete Main
    Default                     : No
    Forced                      : No

    Text #1
    ID                          : 4
    Format                      : UTF-8
    Codec ID                    : S_TEXT/UTF8
    Codec ID/Info               : UTF-8 Plain Text
    Duration                    : 56 min 15 s
    Bit rate                    : 0 b/s
    Count of elements           : 3
    Stream size                 : 69.0 Bytes (0%)
    Title                       : Español latino [CinemaniaHDD]
    Language                    : Spanish
    Default                     : Yes
    Forced                      : No

    Text #2
    ID                          : 5
    Format                      : UTF-8
    Codec ID                    : S_TEXT/UTF8
    Codec ID/Info               : UTF-8 Plain Text
    Duration                    : 1 h 21 min
    Bit rate                    : 54 b/s
    Count of elements           : 1080
    Stream size                 : 32.4 KiB (0%)
    Title                       : Forzados [CinemaniaHDD]
    Language                    : Spanish
    Default                     : No
    Forced                      : No

    Menu
    00:00:00.000                : :Глава 01
    00:11:26.603                : :Глава 02
    00:24:30.177                : :Глава 03
    00:37:16.609                : :Глава 04
    00:52:20.220                : :Глава 05
    01:05:51.239                : :Глава 06
    01:18:34.543                : :Глава 07
    01:21:29.134                : :Глава 08

  • Peso: 2.51 GiB

Sinopsis

Un ladrón de poca monta trata de robar una gasolinera. Sin embargo, el empleado que allí trabaja no sólo logra defenderse, sino que además lo captura y lo hace su prisionero. Mientras espera a que llegue la policía, tanto él como el resto de trabajadores tratan de informarse sobre los motivos que llevaron al ladrón a entrar en el mundo del crimen.

Ficha técnica

Video trailer de la película

Enlaces de descarga

Aportes de DPeliculasHDmega la pass es:dpeliculashdmega.org Aportes de CinemaniaHD la pass es:cinemaniahdd.com Aportes recientes:cinemaniahdd.net
Guardado en : HD 1080p , Suspenso

Películas relacionadas

  • Strictly Confidential (2024) WEB-DL 1080p Latino

    Strictly Confidential (2024) WEB-DL 1080p Latino

    2024
    Strictly Confidential (2024) WEB-DL 1080p Latino

    1h 28m 2024

    Descargar Strictly Confidential (2024) WEB-DL 1080p Latino. Una joven atormentada se ve atraída por...

    Director: Damian Hurley

    Género: Misterio

    Actores: Thomas Downey

  • La Otra Cara de Dorian (2023) WEB-DL 1080p Latino

    La Otra Cara de Dorian (2023) WEB-DL 1080p Latino

    2023
    La Otra Cara de Dorian (2023) WEB-DL 1080p Latino

    1h 40m 2023

    Descargar La Otra Cara de Dorian (2023) WEB-DL 1080p Latino. Una versión moderna del cuento de Oscar...

    Director: Richard John Taylor

    Género: Drama

    Actores: Triana Terry

  • Arthur: Una Amistad sin Limites (2024) HD 1080p Latino

    Arthur: Una Amistad sin Limites (2024) HD 1080p Latino

    2024
    Arthur: Una Amistad sin Limites (2024) HD 1080p Latino

    1h 47m 2024

    Descargar Arthur: Una Amistad sin Limites (2024) HD 1080p Latino. Mikael Lindnord, el capitán del equipo...

    Director: Simon Cellan Jones

    Género: Aventura

    Actores: Zamantha Díaz

  • Antichrist (2009) Full HD 1080p SUB-CMHDD

    Antichrist (2009) Full HD 1080p SUB-CMHDD

    2009
    Antichrist (2009) Full HD 1080p SUB-CMHDD

    1h 48m 2009

    Descargar Antichrist (2009) Full HD 1080p SUB-CMHDD. Una pareja sumida en el dolor se retira a una cabaña...

    Director: Tómas Gislason

    Género: Drama

    Actores: Willem Dafoe

  • Antichrist (2009) 1080p SUB-CMHDD

    Antichrist (2009) 1080p SUB-CMHDD

    2009
    Antichrist (2009) 1080p SUB-CMHDD

    1h 48m 2009

    Descargar Antichrist (2009) 1080p SUB-CMHDD. Una pareja sumida en el dolor se retira a una cabaña perdida...

    Director: Tómas Gislason

    Género: Drama

    Actores: Willem Dafoe

descargar Burn (2019) 1080p Latino 1080p 1080p gratis, Burn (2019) 1080p Latino 1080p mega 1 link, Burn (2019) 1080p Latino 1080p pelicula completa, descargar Burn (2019) 1080p Latino 1080p gratis en mega.

Burn (2019) 1080p Latino pelicula full hd, Burn (2019) 1080p Latino mega latino, Burn (2019) 1080p Latino 4k latino, Burn (2019) 1080p Latino pelicula completa, Burn (2019) 1080p Latino descargar gratis, descargar Burn (2019) 1080p Latino pelicula latino, Burn (2019) 1080p Latino 1 link mega, Burn (2019) 1080p Latino 1 link google drive, Burn (2019) 1080p Latino hd 1080p latino.
Comentarios 0