Bumblebee (2018) REMUX 1080p Latino

2.168 vistas
1 estrella2 estrellas3 estrellas4 estrellas5 estrellas (7 votos, promedio: 4,43 de 5)
Cargando…

Información de Bumblebee (2018) REMUX 1080p Latino

Datos de la película

  • Calidad: Full 1080p
  • Audio: Español Latino AC3 5.1 BLURAY - Ingles DTS-HD Master 7.1 BLURAY
  • Subtitulos: Español Latino PGS - Ingles PGS
  • Resolución: 1920x1080p
  • Formato: MKV
  • Codec: H.264
  • Encoder: CinemaniaHD
  • Mediainfo: Clic para Mostrar Datos Ver
  • Bumblebee (2018) REMUX 1080p Latino.mkv
    Format                      : Matroska
    Format version              : Version 4
    File size                   : 25.0 GiB
    Duration                    : 1 h 53 min
    Overall bit rate mode       : Variable
    Overall bit rate            : 31.5 Mb/s
    Encoded date                : UTC 2019-03-27 00:34:28
    Writing application         : mkvmerge v30.1.0 ('Forever And More') 64-bit
    Writing library             : libebml v1.3.6 + libmatroska v1.4.9

    Video
    ID                          : 1
    Format                      : AVC
    Format/Info                 : Advanced Video Codec
    Format profile              : High@L4.1
    Format settings             : CABAC / 4 Ref Frames
    Format settings, CABAC      : Yes
    Format settings, ReFrames   : 4 frames
    Codec ID                    : V_MPEG4/ISO/AVC
    Duration                    : 1 h 53 min
    Bit rate mode               : Variable
    Bit rate                    : 26.8 Mb/s
    Maximum bit rate            : 29.0 Mb/s
    Width                       : 1 920 pixels
    Height                      : 1 080 pixels
    Display aspect ratio        : 16:9
    Frame rate mode             : Constant
    Frame rate                  : 23.976 (24000/1001) FPS
    Color space                 : YUV
    Chroma subsampling          : 4:2:0
    Bit depth                   : 8 bits
    Scan type                   : Progressive
    Bits/(Pixel*Frame)          : 0.540
    Stream size                 : 21.4 GiB (85%)
    Language                    : English
    Default                     : No
    Forced                      : No

    Audio #1
    ID                          : 2
    Format                      : AC-3
    Format/Info                 : Audio Coding 3
    Commercial name             : Dolby Digital
    Codec ID                    : A_AC3
    Duration                    : 1 h 53 min
    Bit rate mode               : Constant
    Bit rate                    : 640 kb/s
    Channel(s)                  : 6 channels
    Channel layout              : L R C LFE Ls Rs
    Sampling rate               : 48.0 kHz
    Frame rate                  : 31.250 FPS (1536 SPF)
    Bit depth                   : 16 bits
    Compression mode            : Lossy
    Stream size                 : 521 MiB (2%)
    Language                    : Spanish
    Service kind                : Complete Main
    Default                     : Yes
    Forced                      : No

    Audio #2
    ID                          : 3
    Format                      : DTS XLL
    Format/Info                 : Digital Theater Systems
    Commercial name             : DTS-HD Master Audio
    Codec ID                    : A_DTS
    Duration                    : 1 h 53 min
    Bit rate mode               : Variable
    Bit rate                    : 3 946 kb/s
    Channel(s)                  : 8 channels
    Channel layout              : C L R LFE Lb Rb Lss Rss
    Sampling rate               : 48.0 kHz
    Frame rate                  : 93.750 FPS (512 SPF)
    Bit depth                   : 24 bits
    Compression mode            : Lossless
    Stream size                 : 3.14 GiB (13%)
    Language                    : English
    Default                     : No
    Forced                      : No

    Text #1
    ID                          : 4
    Format                      : PGS
    Muxing mode                 : zlib
    Codec ID                    : S_HDMV/PGS
    Codec ID/Info               : Picture based subtitle format used on BDs/HD-DVDs
    Duration                    : 1 h 48 min
    Bit rate                    : 27.7 kb/s
    Count of elements           : 2444
    Stream size                 : 21.5 MiB (0%)
    Title                       : English-PGS
    Language                    : English
    Default                     : No
    Forced                      : No

    Text #2
    ID                          : 5
    Format                      : PGS
    Muxing mode                 : zlib
    Codec ID                    : S_HDMV/PGS
    Codec ID/Info               : Picture based subtitle format used on BDs/HD-DVDs
    Duration                    : 1 h 52 min
    Bit rate                    : 24.3 kb/s
    Count of elements           : 2292
    Stream size                 : 19.6 MiB (0%)
    Title                       : Spanish-PGS
    Language                    : Spanish
    Default                     : No
    Forced                      : No

    Text #3
    ID                          : 6
    Format                      : PGS
    Muxing mode                 : zlib
    Codec ID                    : S_HDMV/PGS
    Codec ID/Info               : Picture based subtitle format used on BDs/HD-DVDs
    Duration                    : 1 h 43 min
    Bit rate                    : 1 153 b/s
    Count of elements           : 96
    Stream size                 : 874 KiB (0%)
    Title                       : Spanish-PGS
    Language                    : Spanish
    Default                     : No
    Forced                      : No

    Text #4
    ID                          : 7
    Format                      : PGS
    Muxing mode                 : zlib
    Codec ID                    : S_HDMV/PGS
    Codec ID/Info               : Picture based subtitle format used on BDs/HD-DVDs
    Duration                    : 1 h 52 min
    Bit rate                    : 23.7 kb/s
    Count of elements           : 2246
    Stream size                 : 19.2 MiB (0%)
    Title                       : Spanish-PGS
    Language                    : Spanish
    Default                     : No
    Forced                      : No

    Text #5
    ID                          : 8
    Format                      : PGS
    Muxing mode                 : zlib
    Codec ID                    : S_HDMV/PGS
    Codec ID/Info               : Picture based subtitle format used on BDs/HD-DVDs
    Duration                    : 1 h 43 min
    Bit rate                    : 1 199 b/s
    Count of elements           : 100
    Stream size                 : 910 KiB (0%)
    Title                       : Spanish-PGS
    Language                    : Spanish
    Default                     : No
    Forced                      : No

    Text #6
    ID                          : 9
    Format                      : UTF-8
    Codec ID                    : S_TEXT/UTF8
    Codec ID/Info               : UTF-8 Plain Text
    Duration                    : 1 h 48 min
    Bit rate                    : 39 b/s
    Count of elements           : 1121
    Stream size                 : 31.6 KiB (0%)
    Language                    : Spanish
    Default                     : Yes
    Forced                      : No

    Text #7
    ID                          : 10
    Format                      : UTF-8
    Codec ID                    : S_TEXT/UTF8
    Codec ID/Info               : UTF-8 Plain Text
    Duration                    : 1 h 43 min
    Bit rate                    : 1 b/s
    Count of elements           : 50
    Stream size                 : 1.40 KiB (0%)
    Language                    : Spanish
    Default                     : No
    Forced                      : No

    Menu
    00:00:00.000                : en:Chapter 01
    00:03:30.710                : en:Chapter 02
    00:12:16.485                : en:Chapter 03
    00:16:56.724                : en:Chapter 04
    00:21:03.053                : en:Chapter 05
    00:26:42.601                : en:Chapter 06
    00:32:33.326                : en:Chapter 07
    00:39:44.090                : en:Chapter 08
    00:45:18.590                : en:Chapter 09
    00:50:43.623                : en:Chapter 10
    00:54:16.253                : en:Chapter 11
    01:01:10.708                : en:Chapter 12
    01:06:26.899                : en:Chapter 13
    01:11:39.545                : en:Chapter 14
    01:16:08.105                : en:Chapter 15
    01:21:37.142                : en:Chapter 16
    01:25:08.603                : en:Chapter 17
    01:30:15.410                : en:Chapter 18
    01:36:46.801                : en:Chapter 19
    01:43:52.559                : en:Chapter 20
    01:49:43.201                : en:Chapter 21

  • Peso: 25.0 GiB

Sinopsis

Descargar Bumblebee (2018) REMUX 1080p Latino. Sexta entrega de la saga ‘Transformers’, esta vez centrada en el «hermano pequeño» de los Autobots, Bumblebee. Tratando de escapar, en el año 1987, Bumblebee encuentra refugio en un depósito de chatarra en una pequeña ciudad en la costa Californiana. Charlie (Hailee Steinfeld), a punto de cumplir 18 años y tratando de encontrar su lugar en el mundo, descubre a Bumblebee, dañado durante una batalla y descompuesto. Cuando Charlie lo revive, aprende rápidamente que éste no es un VW amarillo ordinario.

RESUBIDO!

Ficha técnica

Video trailer de la película

Enlaces de descarga

Rip de Bluray

Descargar Bumblebee (2018) REMUX 1080p Latino




Aportes de DPeliculasHDmega la pass es:dpeliculashdmega.org Aportes de CinemaniaHD la pass es:cinemaniahdd.com
Guardado en : Acción , Aventura , Ciencia ficción , Remux

Películas relacionadas

  • The Hater (2020) REMUX 1080p Latino

    The Hater (2020) REMUX 1080p Latino

    2020
    The Hater (2020) REMUX 1080p Latino

    0.0 2h 15m 2020

    Descargar The Hater (2020) REMUX 1080p Latino. Narra las manipulaciones del maquiavélico Tomek para...

    Director: Jan Komasa

    Género: Drama

    Actores: Vanessa Aleksander

  • El Fanático (2019) REMUX 1080p Latino

    El Fanático (2019) REMUX 1080p Latino

    2019
    El Fanático (2019) REMUX 1080p Latino

    0.0 1h 28m 2019

    Descargar El Fanático (2019) REMUX 1080p Latino. Moose es un fanático del cine de acción que vive...

    Director: Kimberley Roper

    Género: Crimen

    Actores: Rob Wolfe

  • Bolt (2008) HD 1080p Latino – CMHDD

    Bolt (2008) HD 1080p Latino – CMHDD

    2008
    Bolt (2008) HD 1080p Latino – CMHDD

    0.0 1h 36m 2008

    Para el super-perro Bolt todos los días están llenos de aventuras, peligros e intriga -al menos hasta...

    Director: William Otsuka

    Género: Animación

    Actores: Todd Cummings

  • Bolt (2008) Full HD 1080p Latino – CMHDD

    Bolt (2008) Full HD 1080p Latino – CMHDD

    2008
    Bolt (2008) Full HD 1080p Latino – CMHDD

    0.0 1h 36m 2008

    Para el super-perro Bolt todos los días están llenos de aventuras, peligros e intriga -al menos hasta...

    Director: William Otsuka

    Género: Animación

    Actores: Todd Cummings

Comentarios 0