×

¿Problemas para descargar con Mozilla, EDGE? Deshabilita la opción "Abrir vinculos en una pestaña nueva" tal como lo muestra ésta imagen.

Bumblebee (2018) REMUX 4K HDR Latino – CMHDD

78 vistas

Información de Bumblebee (2018) REMUX 4K HDR Latino – CMHDD

Datos de la película

  • Calidad: 4K HDR
  • Audio: Español Latino AC3 5.1 BLURAY - Ingles DTS-HD Master 7.1 BLURAY
  • Subtitulos: Español Latino SRT- FORZADOS SRT
  • Resolución: 3840x2160p
  • Formato: MKV
  • Codec: H.264
  • Encoder: Dracarys
  • Mediainfo: Clic para Mostrar Datos Ver
  • Format                      : Matroska
    Format version              : Version 4
    File size                   : 48.0 GiB
    Duration                    : 1 h 53 min
    Overall bit rate mode       : Variable
    Overall bit rate            : 60.4 Mb/s
    Movie name                  : Bumblebee (2018) REMUX 4K HDR Latino - CMHDD
    Encoded date                : UTC 2024-04-13 04:08:31
    Writing application         : mkvmerge v47.0.0 ('Black Flag') 64-bit
    Writing library             : libebml v1.3.10 + libmatroska v1.5.2

    Video
    ID                          : 1
    ID in the original source m : 4113 (0x1011)
    Format                      : HEVC
    Format/Info                 : High Efficiency Video Coding
    Format profile              : Main 10@L5.1@High
    HDR format                  : SMPTE ST 2086, HDR10 compatible
    Codec ID                    : V_MPEGH/ISO/HEVC
    Duration                    : 1 h 53 min
    Bit rate                    : 55.1 Mb/s
    Width                       : 3 840 pixels
    Height                      : 2 160 pixels
    Display aspect ratio        : 16:9
    Frame rate mode             : Constant
    Frame rate                  : 23.976 (24000/1001) FPS
    Color space                 : YUV
    Chroma subsampling          : 4:2:0 (Type 2)
    Bit depth                   : 10 bits
    Bits/(Pixel*Frame)          : 0.277
    Stream size                 : 43.9 GiB (91%)
    Language                    : English
    Default                     : Yes
    Forced                      : No
    Color range                 : Limited
    Color primaries             : BT.2020
    Transfer characteristics    : PQ
    Matrix coefficients         : BT.2020 non-constant
    Mastering display color pri : Display P3
    Mastering display luminance : min: 0.0001 cd/m2, max: 1000 cd/m2
    Original source medium      : Blu-ray

    Audio #1
    ID                          : 2
    Format                      : AC-3
    Format/Info                 : Audio Coding 3
    Commercial name             : Dolby Digital
    Codec ID                    : A_AC3
    Duration                    : 1 h 53 min
    Bit rate mode               : Constant
    Bit rate                    : 640 kb/s
    Channel(s)                  : 6 channels
    Channel layout              : L R C LFE Ls Rs
    Sampling rate               : 48.0 kHz
    Frame rate                  : 31.250 FPS (1536 SPF)
    Compression mode            : Lossy
    Stream size                 : 521 MiB (1%)
    Language                    : Spanish
    Service kind                : Complete Main
    Default                     : Yes
    Forced                      : No

    Audio #2
    ID                          : 3
    ID in the original source m : 4352 (0x1100)
    Format                      : AC-3
    Format/Info                 : Audio Coding 3
    Commercial name             : Dolby Digital
    Format settings             : Dolby Surround EX
    Codec ID                    : A_AC3
    Duration                    : 1 h 53 min
    Bit rate mode               : Constant
    Bit rate                    : 640 kb/s
    Channel(s)                  : 6 channels
    Channel layout              : L R C LFE Ls Rs
    Sampling rate               : 48.0 kHz
    Frame rate                  : 31.250 FPS (1536 SPF)
    Compression mode            : Lossy
    Stream size                 : 521 MiB (1%)
    Language                    : English
    Service kind                : Complete Main
    Default                     : No
    Forced                      : No
    Original source medium      : Blu-ray

    Audio #3
    ID                          : 4
    Format                      : DTS XLL
    Format/Info                 : Digital Theater Systems
    Commercial name             : DTS-HD Master Audio
    Codec ID                    : A_DTS
    Duration                    : 1 h 53 min
    Bit rate mode               : Variable
    Bit rate                    : 3 946 kb/s
    Channel(s)                  : 8 channels
    Channel layout              : C L R LFE Lb Rb Lss Rss
    Sampling rate               : 48.0 kHz
    Frame rate                  : 93.750 FPS (512 SPF)
    Bit depth                   : 24 bits
    Compression mode            : Lossless
    Stream size                 : 3.14 GiB (7%)
    Language                    : English
    Default                     : No
    Forced                      : No

    Text #1
    ID                          : 5
    Format                      : UTF-8
    Codec ID                    : S_TEXT/UTF8
    Codec ID/Info               : UTF-8 Plain Text
    Duration                    : 1 h 43 min
    Bit rate                    : 1 b/s
    Frame rate                  : 0.008 FPS
    Count of elements           : 50
    Stream size                 : 1.40 KiB (0%)
    Title                       : Forzado
    Language                    : Spanish
    Default                     : Yes
    Forced                      : No

    Text #2
    ID                          : 6
    Format                      : UTF-8
    Codec ID                    : S_TEXT/UTF8
    Codec ID/Info               : UTF-8 Plain Text
    Duration                    : 1 h 48 min
    Bit rate                    : 39 b/s
    Frame rate                  : 0.172 FPS
    Count of elements           : 1121
    Stream size                 : 31.6 KiB (0%)
    Language                    : Spanish
    Default                     : No
    Forced                      : No

    Text #3
    ID                          : 7
    Format                      : PGS
    Muxing mode                 : zlib
    Codec ID                    : S_HDMV/PGS
    Codec ID/Info               : Picture based subtitle format used on BDs/HD-DVDs
    Duration                    : 1 h 43 min
    Bit rate                    : 3 050 b/s
    Frame rate                  : 0.016 FPS
    Count of elements           : 100
    Stream size                 : 2.26 MiB (0%)
    Title                       : Forzado
    Language                    : Spanish
    Default                     : No
    Forced                      : No

    Text #4
    ID                          : 8
    Format                      : PGS
    Muxing mode                 : zlib
    Codec ID                    : S_HDMV/PGS
    Codec ID/Info               : Picture based subtitle format used on BDs/HD-DVDs
    Duration                    : 1 h 52 min
    Bit rate                    : 22.8 kb/s
    Frame rate                  : 0.331 FPS
    Count of elements           : 2246
    Stream size                 : 18.4 MiB (0%)
    Language                    : Spanish
    Default                     : No
    Forced                      : No

    Menu
    00:00:00.000                : Chapter 01
    00:03:30.710                : Chapter 02
    00:12:16.485                : Chapter 03
    00:16:56.724                : Chapter 04
    00:21:03.053                : Chapter 05
    00:26:42.600                : Chapter 06
    00:32:33.326                : Chapter 07
    00:39:44.090                : Chapter 08
    00:45:18.590                : Chapter 09
    00:50:43.623                : Chapter 10
    00:54:16.252                : Chapter 11
    01:01:10.708                : Chapter 12
    01:06:26.899                : Chapter 13
    01:11:39.545                : Chapter 14
    01:16:08.105                : Chapter 15
    01:21:37.142                : Chapter 16
    01:25:08.603                : Chapter 17
    01:30:15.409                : Chapter 18
    01:36:46.801                : Chapter 19
    01:43:52.559                : Chapter 20
    01:49:43.201                : Chapter 21

     

  • Peso: 48.0 GiB

Sinopsis

Sexta entrega de la saga ‘Transformers’, esta vez centrada en el «hermano pequeño» de los Autobots, Bumblebee. Tratando de escapar, en el año 1987, Bumblebee encuentra refugio en un depósito de chatarra en una pequeña ciudad en la costa Californiana. Charlie (Hailee Steinfeld), a punto de cumplir 18 años y tratando de encontrar su lugar en el mundo, descubre a Bumblebee, dañado durante una batalla y descompuesto. Cuando Charlie lo revive, aprende rápidamente que éste no es un VW amarillo ordinario.

Ficha técnica

Video trailer de la película

Enlaces de descarga

Rip de Bluray

Descargar Bumblebee (2018) REMUX 4K HDR Latino – CMHDD




Aportes de DPeliculasHDmega la pass es:dpeliculashdmega.org Aportes de CinemaniaHD la pass es:cinemaniahdd.com Aportes recientes:cinemaniahdd.net
Guardado en : Acción , Aventura , Ciencia ficción

Películas relacionadas

  • The Shift (2023) AMZN WEB-DL 1080p Latino

    The Shift (2023) AMZN WEB-DL 1080p Latino

    2023
    The Shift (2023) AMZN WEB-DL 1080p Latino

    1h 53m 2023

    Descargar The Shift (2023) AMZN WEB-DL 1080p Latino. Kevin viaja a través de los mundos para reunirse...

    Director: Brock Heasley

    Género: Ciencia ficción

    Actores: Teck

  • Godzilla: Minus One (2023) 1080p SUB-CMHDD

    Godzilla: Minus One (2023) 1080p SUB-CMHDD

    2023
    Godzilla: Minus One (2023) 1080p SUB-CMHDD

    2h 5m 2023

    Descargar Godzilla: Minus One (2023) 1080p SUB-CMHDD. En el Japón de la posguerra surge un nuevo terror....

    Director: 山崎貴

    Género: Acción

    Actores: 鶴田翔

  • Kung Fu Panda 4 (2024) 1080p Latino-CMHDD

    Kung Fu Panda 4 (2024) 1080p Latino-CMHDD

    2024
    Kung Fu Panda 4 (2024) 1080p Latino-CMHDD

    1h 34m 2024

    Descargar Kung Fu Panda 4 (2024) 1080p Latino-CMHDD. Po se prepara para ser el líder espiritual del...

    Director: Stephanie Ma Stine

    Género: Acción

    Actores: Viola Davis

  • Kung Fu Panda 4 (2024) Full HD 1080p Latino-CMHDD

    Kung Fu Panda 4 (2024) Full HD 1080p Latino-CMHDD

    2024
    Kung Fu Panda 4 (2024) Full HD 1080p Latino-CMHDD

    1h 34m 2024

    Descargar Kung Fu Panda 4 (2024) Full HD 1080p Latino-CMHDD. Po se prepara para ser el líder espiritual...

    Director: Stephanie Ma Stine

    Género: Acción

    Actores: Viola Davis

  • Kung Fu Panda 4 (2024) REMUX 1080p Latino-CMHDD

    Kung Fu Panda 4 (2024) REMUX 1080p Latino-CMHDD

    2024
    Kung Fu Panda 4 (2024) REMUX 1080p Latino-CMHDD

    1h 34m 2024

    Descargar Kung Fu Panda 4 (2024) REMUX 1080p Latino-CMHDD. Po se prepara para ser el líder espiritual...

    Director: Stephanie Ma Stine

    Género: Acción

    Actores: Viola Davis

descargar Bumblebee (2018) REMUX 4K HDR Latino – CMHDD 4K HDR 1080p gratis, Bumblebee (2018) REMUX 4K HDR Latino – CMHDD 4K HDR mega 1 link, Bumblebee (2018) REMUX 4K HDR Latino – CMHDD 4K HDR pelicula completa, descargar Bumblebee (2018) REMUX 4K HDR Latino – CMHDD 4K HDR gratis en mega.

Bumblebee (2018) REMUX 4K HDR Latino – CMHDD pelicula full hd, Bumblebee (2018) REMUX 4K HDR Latino – CMHDD mega latino, Bumblebee (2018) REMUX 4K HDR Latino – CMHDD 4k latino, Bumblebee (2018) REMUX 4K HDR Latino – CMHDD pelicula completa, Bumblebee (2018) REMUX 4K HDR Latino – CMHDD descargar gratis, descargar Bumblebee (2018) REMUX 4K HDR Latino – CMHDD pelicula latino, Bumblebee (2018) REMUX 4K HDR Latino – CMHDD 1 link mega, Bumblebee (2018) REMUX 4K HDR Latino – CMHDD 1 link google drive, Bumblebee (2018) REMUX 4K HDR Latino – CMHDD hd 1080p latino.
Comentarios 0