×

¿Problemas para descargar con Mozilla, EDGE? Deshabilita la opción "Abrir vinculos en una pestaña nueva" tal como lo muestra ésta imagen.

Bumblebee (2018) 1080p Latino

4.649 vistas

Información de Bumblebee (2018) 1080p Latino

Datos de la película

  • Calidad: 1080p
  • Audio: Español Latino AC3 5.1 BLURAY - Ingles AC3 5.1 BLURAY
  • Subtitulos: Español Latino SRT - Ingles SRT
  • Resolución: 1920x1080p
  • Formato: MKV
  • Codec: H.264
  • Encoder: Chesse92 | CinefiloCool
  • Mediainfo: Clic para Mostrar Datos Ver
  • Bumblebee (2018) 1080p Latino-CMHDD.mkv
    Format                      : Matroska
    Format version              : Version 4
    File size                   : 4.45 GiB
    Duration                    : 1 h 53 min
    Overall bit rate            : 5 591 kb/s
    Movie name                  : Bumblebee (2018) CinemaniaHDD.Net
    Encoded date                : UTC 2020-08-02 02:53:34
    Writing application         : mkvmerge v46.0.0 ('No Deeper Escape') 64-bit
    Writing library             : libebml v1.3.10 + libmatroska v1.5.2
    Attachments                 : CINEMANIAHD.png

    Video
    ID                          : 1
    Format                      : AVC
    Format/Info                 : Advanced Video Codec
    Format profile              : High@L4.1
    Format settings             : CABAC / 4 Ref Frames
    Format settings, CABAC      : Yes
    Format settings, Reference  : 4 frames
    Codec ID                    : V_MPEG4/ISO/AVC
    Duration                    : 1 h 53 min
    Bit rate                    : 4 500 kb/s
    Width                       : 1 920 pixels
    Height                      : 1 080 pixels
    Display aspect ratio        : 16:9
    Frame rate mode             : Constant
    Frame rate                  : 23.976 (24000/1001) FPS
    Color space                 : YUV
    Chroma subsampling          : 4:2:0
    Bit depth                   : 8 bits
    Scan type                   : Progressive
    Bits/(Pixel*Frame)          : 0.091
    Stream size                 : 3.58 GiB (80%)
    Title                       : HD1080p [CinemaniaHDD]
    Writing library             : x264 core 157 r2935 545de2f
    Encoding settings           : cabac=1 / ref=4 / deblock=1:-1:-1 / analyse=0x3:0x133 / me=umh / subme=10 / psy=1 / psy_rd=1.00:0.15 / mixed_ref=1 / me_range=24 / chroma_me=1 / trellis=2 / 8x8dct=1 / cqm=0 / deadzone=21,11 / fast_pskip=1 / chroma_qp_offset=-3 / threads=12 / lookahead_threads=2 / sliced_threads=0 / nr=1000 / decimate=1 / interlaced=0 / bluray_compat=0 / constrained_intra=0 / bframes=8 / b_pyramid=2 / b_adapt=2 / b_bias=0 / direct=3 / weightb=1 / open_gop=0 / weightp=2 / keyint=240 / keyint_min=23 / scenecut=40 / intra_refresh=0 / rc_lookahead=60 / rc=2pass / mbtree=1 / bitrate=4500 / ratetol=1.0 / qcomp=0.60 / qpmin=0 / qpmax=69 / qpstep=4 / cplxblur=20.0 / qblur=0.5 / vbv_maxrate=62500 / vbv_bufsize=78125 / nal_hrd=none / filler=0 / ip_ratio=1.40 / aq=1:1.00
    Default                     : Yes
    Forced                      : No
    Color range                 : Limited
    Color primaries             : Generic film
    Transfer characteristics    : BT.709
    Matrix coefficients         : BT.709

    Audio #1
    ID                          : 2
    Format                      : AC-3
    Format/Info                 : Audio Coding 3
    Commercial name             : Dolby Digital
    Codec ID                    : A_AC3
    Duration                    : 1 h 53 min
    Bit rate mode               : Constant
    Bit rate                    : 640 kb/s
    Channel(s)                  : 6 channels
    Channel layout              : L R C LFE Ls Rs
    Sampling rate               : 48.0 kHz
    Frame rate                  : 31.250 FPS (1536 SPF)
    Compression mode            : Lossy
    Stream size                 : 521 MiB (11%)
    Title                       : Español Latino [CinemaniaHDD]
    Language                    : Spanish
    Service kind                : Complete Main
    Default                     : Yes
    Forced                      : No

    Audio #2
    ID                          : 3
    Format                      : AC-3
    Format/Info                 : Audio Coding 3
    Commercial name             : Dolby Digital
    Codec ID                    : A_AC3
    Duration                    : 1 h 53 min
    Bit rate mode               : Constant
    Bit rate                    : 448 kb/s
    Channel(s)                  : 6 channels
    Channel layout              : L R C LFE Ls Rs
    Sampling rate               : 48.0 kHz
    Frame rate                  : 31.250 FPS (1536 SPF)
    Compression mode            : Lossy
    Stream size                 : 365 MiB (8%)
    Title                       : Ingles [CinemaniaHDD]
    Language                    : English
    Service kind                : Complete Main
    Default                     : No
    Forced                      : No

    Text #1
    ID                          : 4
    Format                      : UTF-8
    Codec ID                    : S_TEXT/UTF8
    Codec ID/Info               : UTF-8 Plain Text
    Duration                    : 1 h 43 min
    Bit rate                    : 1 b/s
    Count of elements           : 53
    Stream size                 : 1.43 KiB (0%)
    Title                       : Forzados-SRT [CinemaniaHDD]
    Language                    : Spanish
    Default                     : Yes
    Forced                      : No

    Text #2
    ID                          : 5
    Format                      : UTF-8
    Codec ID                    : S_TEXT/UTF8
    Codec ID/Info               : UTF-8 Plain Text
    Duration                    : 1 h 48 min
    Bit rate                    : 39 b/s
    Count of elements           : 1121
    Stream size                 : 31.6 KiB (0%)
    Title                       : Español-SRT [CinemaniaHDD]
    Language                    : Spanish
    Default                     : No
    Forced                      : No

    Text #3
    ID                          : 6
    Format                      : UTF-8
    Codec ID                    : S_TEXT/UTF8
    Codec ID/Info               : UTF-8 Plain Text
    Duration                    : 1 h 48 min
    Bit rate                    : 42 b/s
    Count of elements           : 1207
    Stream size                 : 34.0 KiB (0%)
    Title                       : Ingles-SRT [CinemaniaHDD]
    Language                    : English
    Default                     : No
    Forced                      : No

    Menu
    00:00:00.000                : :Chapter 1
    00:03:30.711                : :Chapter 2
    00:12:16.486                : :Chapter 3
    00:16:56.724                : :Chapter 4
    00:21:03.053                : :Chapter 5
    00:26:42.601                : :Chapter 6
    00:32:33.326                : :Chapter 7
    00:39:44.090                : :Chapter 8
    00:45:18.591                : :Chapter 9
    00:50:43.624                : :Chapter 10
    00:54:16.253                : :Chapter 11
    01:01:10.709                : :Chapter 12
    01:06:27.025                : :Chapter 13
    01:11:39.545                : :Chapter 14
    01:16:08.105                : :Chapter 15
    01:21:37.142                : :Chapter 16
    01:25:08.604                : :Chapter 17
    01:30:15.410                : :Chapter 18
    01:36:46.801                : :Chapter 19
    01:43:52.685                : :Chapter 20
    01:49:43.243                : :Chapter 21

  • Peso: 4.45 GiB

Sinopsis

Descargar Bumblebee (2018) 1080p Latino. Sexta entrega de la saga ‘Transformers’, esta vez centrada en el «hermano pequeño» de los Autobots, Bumblebee. Tratando de escapar, en el año 1987, Bumblebee encuentra refugio en un depósito de chatarra en una pequeña ciudad en la costa Californiana. Charlie (Hailee Steinfeld), a punto de cumplir 18 años y tratando de encontrar su lugar en el mundo, descubre a Bumblebee, dañado durante una batalla y descompuesto. Cuando Charlie lo revive, aprende rápidamente que éste no es un VW amarillo ordinario.

RESUBIDO!

Ficha técnica

Video trailer de la película

Enlaces de descarga

Rip de Bluray

Descargar Bumblebee (2018) 1080p Latino




Aportes de DPeliculasHDmega la pass es:dpeliculashdmega.org Aportes de CinemaniaHD la pass es:cinemaniahdd.com

Películas relacionadas

  • Zola (2020) HD 1080p Latino

    Zola (2020) HD 1080p Latino

    2020
    Zola (2020) HD 1080p Latino

    1h 26m 2020

    Descargar Zola (2020) HD 1080p Latino. Una camarera accede a acompañar a una bailarina exótica, su...

    Director: Sheri Davani

    Género: Comedia

    Actores: Ts Madison

  • Hocus Pocus: Abracadabra (1993) 1080p Latino

    Hocus Pocus: Abracadabra (1993) 1080p Latino

    1993
    Hocus Pocus: Abracadabra (1993) 1080p Latino

    1h 36m 1993

    Descargar Hocus Pocus: Abracadabra (1993) 1080p Latino. Tres brujas del siglo XII son invocadas durante...

    Director: Kenny Ortega

    Género: Comedia

    Actores: Vinessa Shaw

  • DC Liga De Supermascotas (2022) HD 1080p Latino

    DC Liga De Supermascotas (2022) HD 1080p Latino

    2022
    DC Liga De Supermascotas (2022) HD 1080p Latino

    1h 45m 2022

    Descargar DC Liga De Supermascotas (2022) HD 1080p Latino. Krypto el Superperro y Superman son amigos...

    Director: Sam Levine

    Género: Acción

    Actores: Yvette Nicole Brown

descargar Bumblebee (2018) 1080p Latino 1080p 1080p gratis, Bumblebee (2018) 1080p Latino 1080p mega 1 link, Bumblebee (2018) 1080p Latino 1080p pelicula completa, descargar Bumblebee (2018) 1080p Latino 1080p gratis en mega.

Bumblebee (2018) 1080p Latino pelicula full hd, Bumblebee (2018) 1080p Latino mega latino, Bumblebee (2018) 1080p Latino 4k latino, Bumblebee (2018) 1080p Latino pelicula completa, Bumblebee (2018) 1080p Latino descargar gratis, descargar Bumblebee (2018) 1080p Latino pelicula latino, Bumblebee (2018) 1080p Latino 1 link mega, Bumblebee (2018) 1080p Latino 1 link google drive, Bumblebee (2018) 1080p Latino hd 1080p latino.
Comentarios 5
  • Joseph Flores Castillejo - 24 marzo, 2019

    La parte 4 esta dañada. 🙁

    • dpelis - 24 marzo, 2019

      reparar el archivo o descargar la parte de otro servidor

  • alex - 24 marzo, 2019

    hola, gracias por la pelicula, solo que la parte 4 está mal

  • Jose Laguna - 23 marzo, 2019

    El audio en Ingles es el descriptivo, no el oficial.