Brothers (2009) REMUX 1080p Latino – CMHDD

101 vistas
1 estrella2 estrellas3 estrellas4 estrellas5 estrellas (Ninguna valoración todavía)
Cargando...

Información de Brothers (2009) REMUX 1080p Latino – CMHDD

Datos de la película

  • Calidad: Full 1080p
  • Audio: Español Latino AC3 2.0 DVD - Ingles DTS 5.1 BLURAY
  • Subtitulos: Español Latino PGS
  • Resolución: 1920x1080p
  • Formato: MKV
  • Codec: H.264
  • Encoder: Dracarys
  • Mediainfo: Clic para Mostrar Datos Ver
  • Format                      : Matroska
    Format version              : Version 4
    File size                   : 15.7 GiB
    Duration                    : 1 h 44 min
    Overall bit rate mode       : Variable
    Overall bit rate            : 21.4 Mb/s
    Movie name                  : Brothers (2009) REMUX 1080p Latino - CMHDD
    Encoded date                : UTC 2021-04-10 22:45:58
    Writing application         : mkvmerge v51.0.0 ('I Wish') 64-bit
    Writing library             : libebml v1.4.0 + libmatroska v1.6.2
    Cover                       : Yes
    Attachments                 : cover.jpg

    Video
    ID                          : 1
    ID in the original source m : 4113 (0x1011)
    Format                      : AVC
    Format/Info                 : Advanced Video Codec
    Format profile              : High@L4.1
    Format settings             : CABAC / 4 Ref Frames
    Format settings, CABAC      : Yes
    Format settings, Reference  : 4 frames
    Codec ID                    : V_MPEG4/ISO/AVC
    Duration                    : 1 h 44 min
    Bit rate mode               : Variable
    Bit rate                    : 18.0 Mb/s
    Maximum bit rate            : 37.0 Mb/s
    Width                       : 1 920 pixels
    Height                      : 1 080 pixels
    Display aspect ratio        : 16:9
    Frame rate mode             : Constant
    Frame rate                  : 23.976 (24000/1001) FPS
    Color space                 : YUV
    Chroma subsampling          : 4:2:0
    Bit depth                   : 8 bits
    Scan type                   : Progressive
    Bits/(Pixel*Frame)          : 0.361
    Stream size                 : 13.1 GiB (84%)
    Default                     : Yes
    Forced                      : No
    Color range                 : Limited
    Color primaries             : BT.709
    Transfer characteristics    : BT.709
    Matrix coefficients         : BT.709
    Original source medium      : Blu-ray

    Audio #1
    ID                          : 2
    Format                      : AC-3
    Format/Info                 : Audio Coding 3
    Commercial name             : Dolby Digital
    Codec ID                    : A_AC3
    Duration                    : 1 h 44 min
    Bit rate mode               : Constant
    Bit rate                    : 256 kb/s
    Channel(s)                  : 2 channels
    Channel layout              : L R
    Sampling rate               : 48.0 kHz
    Frame rate                  : 31.250 FPS (1536 SPF)
    Compression mode            : Lossy
    Stream size                 : 192 MiB (1%)
    Language                    : Spanish
    Service kind                : Complete Main
    Default                     : Yes
    Forced                      : No

    Audio #2
    ID                          : 3
    ID in the original source m : 4352 (0x1100)
    Format                      : DTS XLL
    Format/Info                 : Digital Theater Systems
    Commercial name             : DTS-HD Master Audio
    Codec ID                    : A_DTS
    Duration                    : 1 h 44 min
    Bit rate mode               : Variable
    Bit rate                    : 3 198 kb/s
    Channel(s)                  : 6 channels
    Channel layout              : C L R Ls Rs LFE
    Sampling rate               : 48.0 kHz
    Frame rate                  : 93.750 FPS (512 SPF)
    Bit depth                   : 24 bits
    Compression mode            : Lossless
    Stream size                 : 2.34 GiB (15%)
    Language                    : English
    Default                     : No
    Forced                      : No
    Original source medium      : Blu-ray

    Text
    ID                          : 4
    ID in the original source m : 4610 (0x1202)
    Format                      : PGS
    Muxing mode                 : zlib
    Codec ID                    : S_HDMV/PGS
    Codec ID/Info               : Picture based subtitle format used on BDs/HD-DVDs
    Duration                    : 1 h 39 min
    Bit rate                    : 22.1 kb/s
    Count of elements           : 1978
    Stream size                 : 15.7 MiB (0%)
    Language                    : Spanish
    Default                     : Yes
    Forced                      : No
    Original source medium      : Blu-ray

    Menu
    00:00:00.000                : en:Chapter 01
    00:05:55.813                : en:Chapter 02
    00:14:26.907                : en:Chapter 03
    00:19:23.120                : en:Chapter 04
    00:28:03.223                : en:Chapter 05
    00:32:41.334                : en:Chapter 06
    00:39:23.486                : en:Chapter 07
    00:46:45.636                : en:Chapter 08
    00:54:45.532                : en:Chapter 09
    00:58:07.150                : en:Chapter 10
    01:06:31.821                : en:Chapter 11
    01:10:33.854                : en:Chapter 12
    01:18:33.875                : en:Chapter 13
    01:27:18.524                : en:Chapter 14
    01:32:10.775                : en:Chapter 15
    01:37:20.793                : en:Chapter 16

  • Peso: 15.7 GiB

Sinopsis

Remake del film danés de Susanne Bier, «Brothers (Brødre)» (2004). El capitán Sam Cahill (Tobey Maguire), un condecorado marine, es enviado a combatir en Afganistán. Algunos meses después, el gobierno lo declara fallecido o desaparecido. Enterado de la noticia, su hermano pequeño Tommy (Jake Gyllenhaal) se queda en Estados Unidos, cuidando de su cuñada Grace (Natalie Portman) y sus sobrinos. Con el tiempo, Tommy se gana su cariño y llega a sustituir a su hermano como marido y como padre. Pero un día reciben una noticia inesperada, cuyas consecuencias sacudirán la unidad de la familia.

Ficha técnica

Video trailer de la película

Enlaces de descarga

Rip de Bluray

Descargar Brothers (2009) REMUX 1080p Latino – CMHDD


Aportes de DPeliculasHDmega la pass es:dpeliculashdmega.org Aportes de CinemaniaHD la pass es:cinemaniahdd.com
Guardado en : Bélica , Drama , Suspenso

Películas relacionadas

Brothers (2009) REMUX 1080p Latino – CMHDD pelicula full hd, Brothers (2009) REMUX 1080p Latino – CMHDD mega latino, Brothers (2009) REMUX 1080p Latino – CMHDD 4k latino, Brothers (2009) REMUX 1080p Latino – CMHDD pelicula completa, Brothers (2009) REMUX 1080p Latino – CMHDD descargar gratis, descargar Brothers (2009) REMUX 1080p Latino – CMHDD pelicula latino, Brothers (2009) REMUX 1080p Latino – CMHDD 1 link mega, Brothers (2009) REMUX 1080p Latino – CMHDD 1 link google drive, Brothers (2009) REMUX 1080p Latino – CMHDD hd 1080p latino.
Comentarios 0