×

¿Problemas para descargar con Mozilla, EDGE? Deshabilita la opción "Abrir vinculos en una pestaña nueva" tal como lo muestra ésta imagen.

Bronco: La serie (2019) Temporada 1 WEB-DL 1080p Latino

10.399 vistas

Información de Bronco: La serie (2019) Temporada 1 WEB-DL 1080p Latino

Datos de la película

  • Calidad: WEBDL
  • Audio: Español Latino AC3 2.0 ClaroVideo
  • Subtitulos: No
  • Resolución: 1920x1080
  • Formato: MKV
  • Codec: H.264
  • Encoder: cinemaniahdd
  • Mediainfo: Clic para Mostrar Datos Ver
  • Bronco, la serie T01E08 WEB-DL 1080p Latino.mkv
    Format                      : Matroska
    Format version              : Version 4
    File size                   : 1.18 GiB
    Duration                    : 40 min 6 s
    Overall bit rate mode       : Constant
    Overall bit rate            : 4 219 kb/s
    Movie name                  : Bronco, la serie T01E08 - CinemaniaHDD.Net
    Encoded date                : UTC 2019-11-27 02:59:25
    Writing application         : mkvmerge v38.0.0 ('The Silent Type') 64-bit
    Writing library             : libebml v1.3.9 + libmatroska v1.5.2

    Video
    ID                          : 1
    Format                      : AVC
    Format/Info                 : Advanced Video Codec
    Format profile              : High@L4
    Format settings             : CABAC / 2 Ref Frames
    Format settings, CABAC      : Yes
    Format settings, ReFrames   : 2 frames
    Format settings, GOP        : M=1, N=60
    Codec ID                    : V_MPEG4/ISO/AVC
    Duration                    : 40 min 6 s
    Bit rate mode               : Constant
    Bit rate                    : 4 000 kb/s
    Width                       : 1 920 pixels
    Height                      : 1 080 pixels
    Display aspect ratio        : 16:9
    Frame rate mode             : Constant
    Frame rate                  : 23.976 (24000/1001) FPS
    Color space                 : YUV
    Chroma subsampling          : 4:2:0
    Bit depth                   : 8 bits
    Scan type                   : Progressive
    Bits/(Pixel*Frame)          : 0.080
    Stream size                 : 1.11 GiB (94%)
    Title                       : CinemaniaHDD
    Default                     : Yes
    Forced                      : No
    Color range                 : Limited
    Color primaries             : BT.709
    Transfer characteristics    : BT.709
    Matrix coefficients         : BT.709

    Audio
    ID                          : 2
    Format                      : AC-3
    Format/Info                 : Audio Coding 3
    Commercial name             : Dolby Digital
    Codec ID                    : A_AC3
    Duration                    : 40 min 6 s
    Bit rate mode               : Constant
    Bit rate                    : 256 kb/s
    Channel(s)                  : 2 channels
    Channel layout              : L R
    Sampling rate               : 44.1 kHz
    Frame rate                  : 28.711 FPS (1536 SPF)
    Bit depth                   : 16 bits
    Compression mode            : Lossy
    Stream size                 : 73.4 MiB (6%)
    Title                       : Español latino [CinemaniaHDD]
    Language                    : Spanish
    Service kind                : Complete Main
    Default                     : Yes
    Forced                      : No

     

  • Peso: 1.17 GiB C/U

Sinopsis

La serie cuenta la historia desde los inicio de Bronco, la forma en que se gestó la banda, sus obstáculos en el mundo de la música y el éxito total que los llevó a llenar el estadio Azteca con más de 100 mil personas para un concierto. Su separación, la muerte de algunos integrantes y su regreso a los escenarios.

13 CAPITULOS AGREGADOS

FINAL DE TEMPORADA

Ficha técnica

  • Titulo original: Bronco: La serie
  • Fecha de lanzamiento: --2019 (Mexico)
  • Director: Max Zunino
  • Género: Series

Video trailer de la película

Enlaces de descarga

Rip de Bluray

Descargar Bronco: La serie (2019) Temporada 1 WEB-DL 1080p Latino




Aportes de DPeliculasHDmega la pass es:dpeliculashdmega.org Aportes de CinemaniaHD la pass es:cinemaniahdd.com
Guardado en : Series

Películas relacionadas

descargar Bronco: La serie (2019) Temporada 1 WEB-DL 1080p Latino WEBDL 1080p gratis, Bronco: La serie (2019) Temporada 1 WEB-DL 1080p Latino WEBDL mega 1 link, Bronco: La serie (2019) Temporada 1 WEB-DL 1080p Latino WEBDL serie completa, descargar Bronco: La serie (2019) Temporada 1 WEB-DL 1080p Latino WEBDL gratis en mega.

Bronco: La serie (2019) Temporada 1 WEB-DL 1080p Latino pelicula full hd, Bronco: La serie (2019) Temporada 1 WEB-DL 1080p Latino mega latino, Bronco: La serie (2019) Temporada 1 WEB-DL 1080p Latino 4k latino, Bronco: La serie (2019) Temporada 1 WEB-DL 1080p Latino pelicula completa, Bronco: La serie (2019) Temporada 1 WEB-DL 1080p Latino descargar gratis, descargar Bronco: La serie (2019) Temporada 1 WEB-DL 1080p Latino pelicula latino, Bronco: La serie (2019) Temporada 1 WEB-DL 1080p Latino 1 link mega, Bronco: La serie (2019) Temporada 1 WEB-DL 1080p Latino 1 link google drive, Bronco: La serie (2019) Temporada 1 WEB-DL 1080p Latino hd 1080p latino.
Comentarios 25
  • juan - 17 mayo, 2020

    bro lo podes subir a torrent por favor ? gracias

    • Dracarys - 19 mayo, 2020

      ya no se sube a torrent

  • jaimegil1313 - 24 febrero, 2020

    Hola para cuando los capitulos nuevos?

    • CinemaniaHDD - 25 febrero, 2020

      Solo son 13 capitulos

  • Champs - 16 enero, 2020

    Genial Aporte! – Gracias Webmaster!

  • Martin - 25 diciembre, 2019

    Cuando estaran los capítulos del 11 y mas nuevos?

    • CinemaniaHDD - 26 diciembre, 2019

      Ya estas disponibles

      • Martin - 29 diciembre, 2019

        Gracias por subir. Nada mas en el capitulo 11 esta una falla que congela y no esta el sonido sincronizado.

        • CinemaniaHDD - 29 diciembre, 2019

          Hola, en que minuto?

  • Ryanimay - 24 diciembre, 2019

    Cuando subiran los demas capitulos

    • CinemaniaHDD - 26 diciembre, 2019

      Ya estas disponibles

  • Alba - 22 diciembre, 2019

    Gracias por los capis

    • Alba Daniela Martínez Guerrero - 28 diciembre, 2019

      Genial

  • Rene - 19 diciembre, 2019

    Esta muy buena la serie. Nomas queria dejarles saber de una fallita que encontre en el Capitulo 1. En el minuto 36:41, se congela y se brinca 10 segundos. Hace los mismo en el minuto 38:00. Porfavor pueden corregir este pequeño error. Los de mas capitulos estan perfectos 🙂

    • CinemaniaHDD - 26 diciembre, 2019

      ok. arreglado

  • Edoardos - 06 diciembre, 2019

    Mil gracias por esta subida… una muy buena serie… esperando los nuevos capitulos !!

  • Jose Manuel Pantoja Perez - 16 noviembre, 2019

    Varios Capitulos Caidos

    Favor de subir

    • CinemaniaHDD - 16 noviembre, 2019

      Hola.
      Resuelto

  • Agustina - 07 noviembre, 2019

    Por favor no dejen de subir los capitulos!! Me encanto la serie, no puedo verla en la tele.

    • CinemaniaHDD - 07 noviembre, 2019

      No te preocupes, que si se subira 10pre y cuando este disponible un nuevo capitulo

    • CinemaniaHDD - 07 noviembre, 2019

      No te preocupes, que si se subira 100pre y cuando este disponible un nuevo capitulo

  • Kevin - 03 noviembre, 2019

    Muchas gracias por la serie y ojala suban los demás capítulos ya que son el único lugar donde suben la serie en esta calidad y seria una pena que no la terminaran de subir.

    • CinemaniaHDD - 07 noviembre, 2019

      si se subira toda la serie

  • homerj - 25 octubre, 2019

    Van a subir mas capitulos?

    • CinemaniaHDD - 27 octubre, 2019

      Si. cuando este disponible el capitulo.