×

¿Problemas para descargar con Mozilla, EDGE? Deshabilita la opción "Abrir vinculos en una pestaña nueva" tal como lo muestra ésta imagen.

Dragon Ball Super: Broly (2018) Full HD 1080p (JPN) Latino

5.246 vistas

Información de Dragon Ball Super: Broly (2018) Full HD 1080p (JPN) Latino

Datos de la película

  • Calidad: Full 1080p
  • Audio: Se especifica abajo de la Sinopsis
  • Subtitulos: Español Latino SRT- FORZADOS SRT
  • Resolución: 1920x1080p
  • Formato: MKV
  • Codec: H.264
  • Encoder: CinefiloCool
  • Mediainfo: Clic para Mostrar Datos Ver
  • DBS Broly (2018) FullHD (JPN) 1080p Latino[PLACEBO].mkv
    Format                      : Matroska
    Format version              : Version 4
    File size                   : 6.68 GiB
    Duration                    : 1 h 39 min
    Overall bit rate mode       : Variable
    Overall bit rate            : 9 562 kb/s
    Movie name                  : CinemaniaHDD.net
    Encoded date                : UTC 2019-06-17 00:38:39
    Writing application         : mkvmerge v30.1.0 ('Forever And More') 64-bit
    Writing library             : libebml v1.3.6 + libmatroska v1.4.9
    Attachments                 : CINEMANIAHD.png

    Video
    ID                          : 1
    Format                      : AVC
    Format/Info                 : Advanced Video Codec
    Format profile              : High@L4.1
    Format settings             : CABAC / 4 Ref Frames
    Format settings, CABAC      : Yes
    Format settings, ReFrames   : 4 frames
    Codec ID                    : V_MPEG4/ISO/AVC
    Duration                    : 1 h 39 min
    Bit rate                    : 5 015 kb/s
    Width                       : 1 920 pixels
    Height                      : 1 080 pixels
    Display aspect ratio        : 16:9
    Frame rate mode             : Constant
    Frame rate                  : 23.976 (24000/1001) FPS
    Color space                 : YUV
    Chroma subsampling          : 4:2:0
    Bit depth                   : 8 bits
    Scan type                   : Progressive
    Bits/(Pixel*Frame)          : 0.101
    Stream size                 : 3.50 GiB (52%)
    Title                       : Full HD1080p [Bluray]
    Writing library             : x264 core 157 r2935 545de2f
    Encoding settings           : cabac=1 / ref=4 / deblock=1:0:0 / analyse=0x3:0x133 / me=tesa / subme=11 / psy=1 / psy_rd=1.00:0.00 / mixed_ref=1 / me_range=24 / chroma_me=1 / trellis=2 / 8x8dct=1 / cqm=0 / deadzone=21,11 / fast_pskip=0 / chroma_qp_offset=-2 / threads=34 / lookahead_threads=8 / sliced_threads=0 / nr=0 / decimate=1 / interlaced=0 / bluray_compat=0 / constrained_intra=0 / bframes=16 / b_pyramid=2 / b_adapt=2 / b_bias=0 / direct=3 / weightb=1 / open_gop=0 / weightp=2 / keyint=240 / keyint_min=24 / scenecut=40 / intra_refresh=0 / rc_lookahead=60 / rc=crf / mbtree=1 / crf=19.0 / qcomp=0.60 / qpmin=0 / qpmax=69 / qpstep=4 / vbv_maxrate=62500 / vbv_bufsize=78125 / crf_max=0.0 / nal_hrd=none / filler=0 / ip_ratio=1.40 / aq=1:1.00
    Default                     : Yes
    Forced                      : No
    Color range                 : Limited
    Color primaries             : BT.709
    Transfer characteristics    : BT.709
    Matrix coefficients         : BT.709

    Audio #1
    ID                          : 2
    Format                      : AC-3
    Format/Info                 : Audio Coding 3
    Commercial name             : Dolby Digital
    Codec ID                    : A_AC3
    Duration                    : 1 h 39 min
    Bit rate mode               : Constant
    Bit rate                    : 640 kb/s
    Channel(s)                  : 6 channels
    Channel layout              : L R C LFE Ls Rs
    Sampling rate               : 48.0 kHz
    Frame rate                  : 31.250 FPS (1536 SPF)
    Bit depth                   : 16 bits
    Compression mode            : Lossy
    Stream size                 : 458 MiB (7%)
    Title                       : AC3_5.1_WebGP_Esp
    Language                    : Spanish
    Service kind                : Complete Main
    Default                     : Yes
    Forced                      : Yes

    Audio #2
    ID                          : 3
    Format                      : DTS XLL
    Format/Info                 : Digital Theater Systems
    Commercial name             : DTS-HD Master Audio
    Codec ID                    : A_DTS
    Duration                    : 1 h 39 min
    Bit rate mode               : Variable
    Bit rate                    : 3 917 kb/s
    Channel(s)                  : 6 channels
    Channel layout              : C L R Ls Rs LFE
    Sampling rate               : 48.0 kHz
    Frame rate                  : 93.750 FPS (512 SPF)
    Bit depth                   : 24 bits
    Compression mode            : Lossless
    Stream size                 : 2.73 GiB (41%)
    Title                       : DTS-HD_5.1_Bluray_Jpn
    Language                    : Japanese
    Default                     : No
    Forced                      : No

    Text #1
    ID                          : 4
    Format                      : UTF-8
    Codec ID                    : S_TEXT/UTF8
    Codec ID/Info               : UTF-8 Plain Text
    Duration                    : 1 h 31 min
    Bit rate                    : 0 b/s
    Count of elements           : 7
    Stream size                 : 113 Bytes (0%)
    Title                       : Sub_Forzados
    Language                    : Spanish
    Default                     : Yes
    Forced                      : Yes

    Text #2
    ID                          : 5
    Format                      : UTF-8
    Codec ID                    : S_TEXT/UTF8
    Codec ID/Info               : UTF-8 Plain Text
    Duration                    : 1 h 39 min
    Bit rate                    : 46 b/s
    Count of elements           : 1021
    Stream size                 : 33.7 KiB (0%)
    Title                       : Sub_Esp
    Language                    : Spanish
    Default                     : No
    Forced                      : No

    Menu
    00:00:00.000                : :(01)00:00:00:000
    00:04:40.405                : :(02)00:04:40:405
    00:09:58.431                : :(03)00:09:58:431
    00:15:31.931                : :(04)00:15:31:931
    00:22:38.107                : :(05)00:22:38:106
    00:25:41.665                : :(06)00:25:41:665
    00:32:41.293                : :(07)00:32:41:292
    00:35:58.073                : :(08)00:35:58:072
    00:39:11.808                : :(09)00:39:11:807
    00:42:51.569                : :(10)00:42:51:569
    00:48:50.302                : :(11)00:48:50:302
    00:54:35.189                : :(12)00:54:35:188
    01:02:50.225                : :(13)01:02:50:224
    01:13:34.493                : :(14)01:13:34:493
    01:16:46.894                : :(15)01:16:46:893
    01:18:48.098                : :(16)01:18:48:098
    01:20:54.350                : :(17)01:20:54:349
    01:29:05.841                : :(18)01:29:05:840
    01:32:37.761                : :(19)01:32:37:760
    01:35:58.253                : :(20)01:35:58:252

  • Peso: 6.68 GiB

Sinopsis

Descargar Dragon Ball Super: Broly (2018) Full HD 1080p (JPN) Latino, Mega, Google Drive. La Tierra vive en paz después de que concluyó el Torneo de Fuerza. Luego de darse cuenta que los Universos aún tienen muchos guerreros poderosos, Gokú pasa todos los días entrenando para alcanzar un nivel de pelea mayor. Un día Gokú y Vegeta enfrentan a un nuevo saiyajin llamado “Broly”, a quien nunca antes han visto. Supuestamente, los saiyajin fueron arrasados durante la destrucción del planeta Vegeta; entonces ¿qué hace uno de ellos en la Tierra? Este encuentro entre tres saiyajin, que han tenido destinos diferentes, se convierte en una batalla estupenda, con Freezer (que ha vuelto del infierno) atrapado en medio de ellos.

Audio Español Latino AC3 5.1 Google Play – Japones DTS-HD 5.1 Bluray

Version Full-HD, BDrip Directa del BD Japones sin filtro Verde y Audio DTS-HD Japones 😉

Ficha técnica

Video trailer de la película

Enlaces de descarga

Rip de Bluray

Descargar Dragon Ball Super: Broly (2018) Full HD 1080p (JPN) Latino




Aportes de DPeliculasHDmega la pass es:dpeliculashdmega.org Aportes de CinemaniaHD la pass es:cinemaniahdd.com

Películas relacionadas

Dragon Ball Super: Broly (2018) Full HD 1080p (JPN) Latino pelicula full hd, Dragon Ball Super: Broly (2018) Full HD 1080p (JPN) Latino mega latino, Dragon Ball Super: Broly (2018) Full HD 1080p (JPN) Latino 4k latino, Dragon Ball Super: Broly (2018) Full HD 1080p (JPN) Latino pelicula completa, Dragon Ball Super: Broly (2018) Full HD 1080p (JPN) Latino descargar gratis, descargar Dragon Ball Super: Broly (2018) Full HD 1080p (JPN) Latino pelicula latino, Dragon Ball Super: Broly (2018) Full HD 1080p (JPN) Latino 1 link mega, Dragon Ball Super: Broly (2018) Full HD 1080p (JPN) Latino 1 link google drive, Dragon Ball Super: Broly (2018) Full HD 1080p (JPN) Latino hd 1080p latino.
Comentarios 0