×

¿Problemas para descargar con Mozilla, EDGE? Deshabilita la opción "Abrir vinculos en una pestaña nueva" tal como lo muestra ésta imagen.

Broken Arrow (1996) REMUX 1080p Latino – CMHDD

179 vistas

Información de Broken Arrow (1996) REMUX 1080p Latino – CMHDD

Datos de la película

  • Calidad: Full 1080p
  • Audio: Español Latino AC3 5.1 BLURAY - Ingles DTS 5.1 BLURAY
  • Subtitulos: Español Latino PGS
  • Resolución: 1920x1080p
  • Formato: MKV
  • Codec: H.264
  • Encoder: Dracarys
  • Mediainfo: Clic para Mostrar Datos Ver
  • Format                      : Matroska
    Format version              : Version 4
    File size                   : 19.3 GiB
    Duration                    : 1 h 48 min
    Overall bit rate mode       : Variable
    Overall bit rate            : 25.5 Mb/s
    Movie name                  : Broken Arrow (1996) REMUX 1080p Latino - CMHDD
    Encoded date                : UTC 2021-07-07 04:23:28
    Writing application         : mkvmerge v56.1.0 ('My Friend') 64-bit
    Writing library             : libebml v1.4.2 + libmatroska v1.6.4

    Video
    ID                          : 1
    ID in the original source m : 4113 (0x1011)
    Format                      : MPEG Video
    Format version              : Version 2
    Format profile              : Main@High
    Format settings             : CustomMatrix / BVOP
    Format settings, BVOP       : Yes
    Format settings, Matrix     : Custom
    Format settings, GOP        : M=3, N=12
    Codec ID                    : V_MPEG2
    Codec ID/Info               : MPEG 1 or 2 Video
    Duration                    : 1 h 48 min
    Bit rate mode               : Variable
    Bit rate                    : 20.4 Mb/s
    Maximum bit rate            : 40.0 Mb/s
    Width                       : 1 920 pixels
    Height                      : 1 080 pixels
    Display aspect ratio        : 16:9
    Frame rate mode             : Constant
    Frame rate                  : 23.976 (24000/1001) FPS
    Color space                 : YUV
    Chroma subsampling          : 4:2:0
    Bit depth                   : 8 bits
    Scan type                   : Progressive
    Compression mode            : Lossy
    Bits/(Pixel*Frame)          : 0.410
    Time code of first frame    : 00:00:00:00
    Time code source            : Group of pictures header
    GOP, Open/Closed            : Open
    GOP, Open/Closed of first f : Closed
    Stream size                 : 15.4 GiB (80%)
    Default                     : Yes
    Forced                      : No
    Original source medium      : Blu-ray

    Audio #1
    ID                          : 2
    ID in the original source m : 4352 (0x1100)
    Format                      : DTS XLL
    Format/Info                 : Digital Theater Systems
    Commercial name             : DTS-HD Master Audio
    Codec ID                    : A_DTS
    Duration                    : 1 h 48 min
    Bit rate mode               : Variable
    Bit rate                    : 4 424 kb/s
    Channel(s)                  : 6 channels
    Channel layout              : C L R Ls Rs LFE
    Sampling rate               : 48.0 kHz
    Frame rate                  : 93.750 FPS (512 SPF)
    Bit depth                   : 24 bits
    Compression mode            : Lossless
    Stream size                 : 3.35 GiB (17%)
    Language                    : English
    Default                     : No
    Forced                      : No
    Original source medium      : Blu-ray

    Audio #2
    ID                          : 3
    ID in the original source m : 4354 (0x1102)
    Format                      : AC-3
    Format/Info                 : Audio Coding 3
    Commercial name             : Dolby Digital
    Codec ID                    : A_AC3
    Duration                    : 1 h 48 min
    Bit rate mode               : Constant
    Bit rate                    : 448 kb/s
    Channel(s)                  : 6 channels
    Channel layout              : L R C LFE Ls Rs
    Sampling rate               : 48.0 kHz
    Frame rate                  : 31.250 FPS (1536 SPF)
    Compression mode            : Lossy
    Stream size                 : 347 MiB (2%)
    Language                    : Spanish
    Service kind                : Complete Main
    Default                     : No
    Forced                      : No
    Original source medium      : Blu-ray

    Audio #3
    ID                          : 4
    Format                      : AC-3
    Format/Info                 : Audio Coding 3
    Commercial name             : Dolby Digital
    Codec ID                    : A_AC3
    Duration                    : 1 h 48 min
    Bit rate mode               : Constant
    Bit rate                    : 256 kb/s
    Channel(s)                  : 6 channels
    Channel layout              : L R C LFE Ls Rs
    Sampling rate               : 48.0 kHz
    Frame rate                  : 31.250 FPS (1536 SPF)
    Compression mode            : Lossy
    Stream size                 : 198 MiB (1%)
    Language                    : Spanish
    Service kind                : Complete Main
    Default                     : Yes
    Forced                      : No

    Text #1
    ID                          : 5
    ID in the original source m : 4609 (0x1201)
    Format                      : PGS
    Muxing mode                 : zlib
    Codec ID                    : S_HDMV/PGS
    Codec ID/Info               : Picture based subtitle format used on BDs/HD-DVDs
    Duration                    : 1 h 40 min
    Bit rate                    : 40.2 kb/s
    Count of elements           : 1902
    Stream size                 : 29.1 MiB (0%)
    Language                    : Spanish
    Default                     : No
    Forced                      : No
    Original source medium      : Blu-ray

    Text #2
    ID                          : 6
    ID in the original source m : 4611 (0x1203)
    Format                      : PGS
    Muxing mode                 : zlib
    Codec ID                    : S_HDMV/PGS
    Codec ID/Info               : Picture based subtitle format used on BDs/HD-DVDs
    Duration                    : 1 h 32 min
    Bit rate                    : 920 b/s
    Count of elements           : 50
    Stream size                 : 625 KiB (0%)
    Language                    : Spanish
    Default                     : Yes
    Forced                      : No
    Original source medium      : Blu-ray

    Text #3
    ID                          : 7
    Format                      : UTF-8
    Codec ID                    : S_TEXT/UTF8
    Codec ID/Info               : UTF-8 Plain Text
    Duration                    : 1 h 41 min
    Bit rate                    : 46 b/s
    Count of elements           : 979
    Stream size                 : 34.7 KiB (0%)
    Language                    : Spanish
    Default                     : No
    Forced                      : No

    Menu
    00:00:00.000                : Chapter 01
    00:05:28.286                : Chapter 02
    00:13:03.157                : Chapter 03
    00:17:41.977                : Chapter 04
    00:20:00.908                : Chapter 05
    00:22:59.336                : Chapter 06
    00:26:38.930                : Chapter 07
    00:33:55.241                : Chapter 08
    00:42:54.655                : Chapter 09
    00:50:53.008                : Chapter 10
    00:53:59.402                : Chapter 11
    01:04:42.712                : Chapter 12
    01:08:48.165                : Chapter 13
    01:11:17.147                : Chapter 14
    01:14:29.882                : Chapter 15
    01:18:00.509                : Chapter 16
    01:20:56.184                : Chapter 17
    01:26:34.189                : Chapter 18
    01:28:49.532                : Chapter 19
    01:30:31.175                : Chapter 20
    01:33:05.580                : Chapter 21
    01:42:13.418                : Chapter 22

  • Peso: 19.3 GiB

Sinopsis

John Travolta y Christian Slater protagonizan esta emocionante película de acción, del director John Woo. Travolta interpreta a un piloto renegado y Slater es su obediente protegido. Copilotos en una misión de alto secreto, Deakins y Hale pronto se encuentran enfrentados en una guerra cuando las cabezas nucleares que transportan son robadas. Hale se da cuenta de que Deakins es el cerebro de la operación, y con millones de vidas en juego y el rápido tictac del reloj avanzando hacia el día señalado, él emplea todo lo que ha aprendido de Deakins para vencerle en su propio juego mortal. Caracterizada por unos brillantes efectos especiales, “Broken Arrow” culmina en una vertiginosa batalla de alta tecnología que mantiene el suspense hasta el final.

Ficha técnica

Video trailer de la película

Enlaces de descarga

Rip de Bluray

Descargar Broken Arrow (1996) REMUX 1080p Latino – CMHDD


Aportes de DPeliculasHDmega la pass es:dpeliculashdmega.org Aportes de CinemaniaHD la pass es:cinemaniahdd.com
Guardado en : Acción

Películas relacionadas

  • Wire Room (2022) HD 1080p Latino

    Wire Room (2022) HD 1080p Latino

    2022
    Wire Room (2022) HD 1080p Latino

    1h 37m 2022

    Descargar Wire Room (2022) HD 1080p Latino. Mientras está de servicio en la sala de cables, un agente...

    Director: Matt Eskandari

    Género: Acción

    Actores: Texas Battle

  • Wire Room (2022) PLACEBO Full HD 1080p Latino

    Wire Room (2022) PLACEBO Full HD 1080p Latino

    2022
    Wire Room (2022) PLACEBO Full HD 1080p Latino

    1h 37m 2022

    Descargar Wire Room (2022) PLACEBO Full HD 1080p Latino. Mientras está de servicio en la sala de cables,...

    Director: Matt Eskandari

    Género: Acción

    Actores: Texas Battle

  • Wire Room (2022) REMUX 1080p Latino

    Wire Room (2022) REMUX 1080p Latino

    2022
    Wire Room (2022) REMUX 1080p Latino

    1h 37m 2022

    Descargar Wire Room (2022) REMUX 1080p Latino. Mientras está de servicio en la sala de cables, un agente...

    Director: Matt Eskandari

    Género: Acción

    Actores: Texas Battle

descargar Broken Arrow (1996) REMUX 1080p Latino – CMHDD Full 1080p 1080p gratis, Broken Arrow (1996) REMUX 1080p Latino – CMHDD Full 1080p mega 1 link, Broken Arrow (1996) REMUX 1080p Latino – CMHDD Full 1080p pelicula completa, descargar Broken Arrow (1996) REMUX 1080p Latino – CMHDD Full 1080p gratis en mega.

Broken Arrow (1996) REMUX 1080p Latino – CMHDD pelicula full hd, Broken Arrow (1996) REMUX 1080p Latino – CMHDD mega latino, Broken Arrow (1996) REMUX 1080p Latino – CMHDD 4k latino, Broken Arrow (1996) REMUX 1080p Latino – CMHDD pelicula completa, Broken Arrow (1996) REMUX 1080p Latino – CMHDD descargar gratis, descargar Broken Arrow (1996) REMUX 1080p Latino – CMHDD pelicula latino, Broken Arrow (1996) REMUX 1080p Latino – CMHDD 1 link mega, Broken Arrow (1996) REMUX 1080p Latino – CMHDD 1 link google drive, Broken Arrow (1996) REMUX 1080p Latino – CMHDD hd 1080p latino.