×

¿Problemas para descargar con Mozilla, EDGE? Deshabilita la opción "Abrir vinculos en una pestaña nueva" tal como lo muestra ésta imagen.

Broken Arrow (1996) Full HD 1080p Latino – CMHDD

230 vistas

Información de Broken Arrow (1996) Full HD 1080p Latino – CMHDD

Datos de la película

  • Calidad: Full 1080p
  • Audio: Español Latino AC3 5.1 BLURAY - Ingles DTS 5.1 BLURAY
  • Subtitulos: Español Latino PGS
  • Resolución: 1920x1080p
  • Formato: MKV
  • Codec: H.264
  • Encoder: Dracarys
  • Mediainfo: Clic para Mostrar Datos Ver
  • Format                      : Matroska
    Format version              : Version 4
    File size                   : 10.1 GiB
    Duration                    : 1 h 48 min
    Overall bit rate mode       : Variable
    Overall bit rate            : 13.4 Mb/s
    Movie name                  : Broken Arrow (1996) Full HD 1080p Latino - CMHDD
    Encoded date                : UTC 2021-07-18 21:28:07
    Writing application         : mkvmerge v56.1.0 ('My Friend') 64-bit
    Writing library             : libebml v1.4.2 + libmatroska v1.6.4

    Video
    ID                          : 1
    Format                      : AVC
    Format/Info                 : Advanced Video Codec
    Format profile              : High@L4.1
    Format settings             : CABAC / 4 Ref Frames
    Format settings, CABAC      : Yes
    Format settings, Reference  : 4 frames
    Codec ID                    : V_MPEG4/ISO/AVC
    Duration                    : 1 h 48 min
    Bit rate                    : 8 714 kb/s
    Width                       : 1 920 pixels
    Height                      : 1 080 pixels
    Display aspect ratio        : 16:9
    Frame rate mode             : Constant
    Frame rate                  : 23.976 (24000/1001) FPS
    Color space                 : YUV
    Chroma subsampling          : 4:2:0
    Bit depth                   : 8 bits
    Scan type                   : Progressive
    Bits/(Pixel*Frame)          : 0.175
    Stream size                 : 6.59 GiB (65%)
    Writing library             : x264 core 157 r2935 545de2f
    Encoding settings           : cabac=1 / ref=4 / deblock=1:0:0 / analyse=0x3:0x133 / me=tesa / subme=11 / psy=1 / psy_rd=1.00:0.00 / mixed_ref=1 / me_range=24 / chroma_me=1 / trellis=2 / 8x8dct=1 / cqm=0 / deadzone=21,11 / fast_pskip=0 / chroma_qp_offset=-2 / threads=24 / lookahead_threads=6 / sliced_threads=0 / nr=0 / decimate=1 / interlaced=0 / bluray_compat=0 / constrained_intra=0 / bframes=16 / b_pyramid=2 / b_adapt=2 / b_bias=0 / direct=3 / weightb=1 / open_gop=0 / weightp=2 / keyint=240 / keyint_min=24 / scenecut=40 / intra_refresh=0 / rc_lookahead=60 / rc=crf / mbtree=1 / crf=20.0 / qcomp=0.60 / qpmin=0 / qpmax=69 / qpstep=4 / vbv_maxrate=62500 / vbv_bufsize=78125 / crf_max=0.0 / nal_hrd=none / filler=0 / ip_ratio=1.40 / aq=1:1.00
    Default                     : Yes
    Forced                      : No
    Color range                 : Limited
    Color primaries             : BT.709
    Transfer characteristics    : BT.709
    Matrix coefficients         : BT.709

    Audio #1
    ID                          : 2
    Format                      : AC-3
    Format/Info                 : Audio Coding 3
    Commercial name             : Dolby Digital
    Codec ID                    : A_AC3
    Duration                    : 1 h 48 min
    Bit rate mode               : Constant
    Bit rate                    : 256 kb/s
    Channel(s)                  : 6 channels
    Channel layout              : L R C LFE Ls Rs
    Sampling rate               : 48.0 kHz
    Frame rate                  : 31.250 FPS (1536 SPF)
    Compression mode            : Lossy
    Stream size                 : 198 MiB (2%)
    Language                    : Spanish
    Service kind                : Complete Main
    Default                     : Yes
    Forced                      : No

    Audio #2
    ID                          : 3
    Format                      : DTS XLL
    Format/Info                 : Digital Theater Systems
    Commercial name             : DTS-HD Master Audio
    Codec ID                    : A_DTS
    Duration                    : 1 h 48 min
    Bit rate mode               : Variable
    Bit rate                    : 4 424 kb/s
    Channel(s)                  : 6 channels
    Channel layout              : C L R Ls Rs LFE
    Sampling rate               : 48.0 kHz
    Frame rate                  : 93.750 FPS (512 SPF)
    Bit depth                   : 24 bits
    Compression mode            : Lossless
    Stream size                 : 3.35 GiB (33%)
    Language                    : English
    Default                     : No
    Forced                      : No

    Text
    ID                          : 4
    Format                      : PGS
    Muxing mode                 : zlib
    Codec ID                    : S_HDMV/PGS
    Codec ID/Info               : Picture based subtitle format used on BDs/HD-DVDs
    Duration                    : 1 h 32 min
    Bit rate                    : 920 b/s
    Count of elements           : 50
    Stream size                 : 625 KiB (0%)
    Language                    : Spanish
    Default                     : No
    Forced                      : No

    Menu
    00:00:00.000                : :Chapter 1
    00:05:28.411                : :Chapter 2
    00:13:03.283                : :Chapter 3
    00:17:41.978                : :Chapter 4
    00:20:01.033                : :Chapter 5
    00:22:59.461                : :Chapter 6
    00:26:38.931                : :Chapter 7
    00:33:55.242                : :Chapter 8
    00:42:54.781                : :Chapter 9
    00:50:53.133                : :Chapter 10
    00:53:59.403                : :Chapter 11
    01:04:42.837                : :Chapter 12
    01:08:48.166                : :Chapter 13
    01:11:17.148                : :Chapter 14
    01:14:30.007                : :Chapter 15
    01:18:00.634                : :Chapter 16
    01:20:56.185                : :Chapter 17
    01:26:34.189                : :Chapter 18
    01:28:49.533                : :Chapter 19
    01:30:31.176                : :Chapter 20
    01:33:05.580                : :Chapter 21
    01:42:13.419                : :Chapter 22

  • Peso: 10.1 GiB

Sinopsis

John Travolta y Christian Slater protagonizan esta emocionante película de acción, del director John Woo. Travolta interpreta a un piloto renegado y Slater es su obediente protegido. Copilotos en una misión de alto secreto, Deakins y Hale pronto se encuentran enfrentados en una guerra cuando las cabezas nucleares que transportan son robadas. Hale se da cuenta de que Deakins es el cerebro de la operación, y con millones de vidas en juego y el rápido tictac del reloj avanzando hacia el día señalado, él emplea todo lo que ha aprendido de Deakins para vencerle en su propio juego mortal. Caracterizada por unos brillantes efectos especiales, “Broken Arrow” culmina en una vertiginosa batalla de alta tecnología que mantiene el suspense hasta el final.

Ficha técnica

Video trailer de la película

Enlaces de descarga

Rip de Bluray

Descargar Broken Arrow (1996) Full HD 1080p Latino – CMHDD




Aportes de DPeliculasHDmega la pass es:dpeliculashdmega.org Aportes de CinemaniaHD la pass es:cinemaniahdd.com
Guardado en : Acción

Películas relacionadas

  • Mar de sangre (2022) WEB-DL 1080p Latino

    Mar de sangre (2022) WEB-DL 1080p Latino

    2022
    Mar de sangre (2022) WEB-DL 1080p Latino

    1h 27m 2022

    Descargar Mar de sangre (2022) WEB-DL 1080p Latino. Un grupo de amigos que disfrutan de un fin de semana...

    Director: James Nunn

    Género: Acción

    Actores: Thomas Michael Flynn

  • Noche sin paz (2022) PLACEBO Full HD 1080p Latino

    Noche sin paz (2022) PLACEBO Full HD 1080p Latino

    2022
    Noche sin paz (2022) PLACEBO Full HD 1080p Latino

    1h 41m 2022

    Descargar Noche sin paz (2022) PLACEBO Full HD 1080p Latino. Cuando un equipo de mercenarios irrumpe...

    Director: Tyshana Hobson

    Género: Acción

    Actores: Yoon Cha-Lee

  • Noche sin paz (2022) HD 1080p Latino

    Noche sin paz (2022) HD 1080p Latino

    2022
    Noche sin paz (2022) HD 1080p Latino

    1h 41m 2022

    Descargar Noche sin paz (2022) HD 1080p Latino. Cuando un equipo de mercenarios irrumpe en Nochebuena...

    Director: Tyshana Hobson

    Género: Acción

    Actores: Yoon Cha-Lee

  • Noche sin paz (2022) REMUX 1080p Latino

    Noche sin paz (2022) REMUX 1080p Latino

    2022
    Noche sin paz (2022) REMUX 1080p Latino

    1h 41m 2022

    Descargar Noche sin paz (2022) REMUX 1080p Latino. Cuando un equipo de mercenarios irrumpe en Nochebuena...

    Director: Tyshana Hobson

    Género: Acción

    Actores: Yoon Cha-Lee

  • Narvik (2022) NF WEB-DL 1080p Latino

    Narvik (2022) NF WEB-DL 1080p Latino

    2022
    Narvik (2022) NF WEB-DL 1080p Latino

    1h 48m 2022

    Descargar Narvik (2022) NF WEB-DL 1080p Latino. Abril de 1940. Los ojos del mundo están puestos en Narvik,...

    Director: Suzanne Svae-Johansen

    Género: Acción

    Actores: Torfinn Nag

descargar Broken Arrow (1996) Full HD 1080p Latino – CMHDD Full 1080p 1080p gratis, Broken Arrow (1996) Full HD 1080p Latino – CMHDD Full 1080p mega 1 link, Broken Arrow (1996) Full HD 1080p Latino – CMHDD Full 1080p pelicula completa, descargar Broken Arrow (1996) Full HD 1080p Latino – CMHDD Full 1080p gratis en mega.

Broken Arrow (1996) Full HD 1080p Latino – CMHDD pelicula full hd, Broken Arrow (1996) Full HD 1080p Latino – CMHDD mega latino, Broken Arrow (1996) Full HD 1080p Latino – CMHDD 4k latino, Broken Arrow (1996) Full HD 1080p Latino – CMHDD pelicula completa, Broken Arrow (1996) Full HD 1080p Latino – CMHDD descargar gratis, descargar Broken Arrow (1996) Full HD 1080p Latino – CMHDD pelicula latino, Broken Arrow (1996) Full HD 1080p Latino – CMHDD 1 link mega, Broken Arrow (1996) Full HD 1080p Latino – CMHDD 1 link google drive, Broken Arrow (1996) Full HD 1080p Latino – CMHDD hd 1080p latino.