×

¿Problemas para descargar con Mozilla, EDGE? Deshabilita la opción "Abrir vinculos en una pestaña nueva" tal como lo muestra ésta imagen.

Britannia (2018) Primera Temporada AMZN WEB-DL 1080p Latino

74 vistas

Información de Britannia (2018) Primera Temporada AMZN WEB-DL 1080p Latino

Datos de la película

  • Calidad: 1080p
  • Audio: Español Latino AC3 2.0 WEB-DL - Ingles AC3 5.1 WEB-DL
  • Subtitulos: Español Latino SRT- FORZADOS SRT
  • Resolución: 1920x1080
  • Formato: MKV
  • Codec: H.264
  • Encoder: cinemaniahdd
  • Mediainfo: Clic para Mostrar Datos Ver
  • Britannia T01E01 AMZN WEB-DL 1080p Latino [CNMNHDD].mkv
    Format                      : Matroska
    Format version              : Version 4
    File size                   : 5.16 GiB
    Duration                    : 1 h 9 min
    Overall bit rate            : 10.6 Mb/s
    Movie name                  : Britannia S01E01 - Woe to the Vanquished [1080p] - CinemaniaHDD.Net
    Encoded date                : UTC 2024-04-16 01:01:47
    Writing application         : mkvmerge v56.1.0 ('My Friend') 64-bit
    Writing library             : libebml v1.4.2 + libmatroska v1.6.4

    Video
    ID                          : 1
    Format                      : AVC
    Format/Info                 : Advanced Video Codec
    Format profile              : High@L4
    Format settings             : CABAC / 4 Ref Frames
    Format settings, CABAC      : Yes
    Format settings, Reference  : 4 frames
    Codec ID                    : V_MPEG4/ISO/AVC
    Duration                    : 1 h 9 min
    Bit rate mode               : Constant
    Bit rate                    : 9 348 kb/s
    Nominal bit rate            : 10 000 kb/s
    Width                       : 1 920 pixels
    Height                      : 1 080 pixels
    Display aspect ratio        : 16:9
    Frame rate mode             : Constant
    Frame rate                  : 25.000 FPS
    Color space                 : YUV
    Chroma subsampling          : 4:2:0
    Bit depth                   : 8 bits
    Scan type                   : Progressive
    Bits/(Pixel*Frame)          : 0.180
    Stream size                 : 4.55 GiB (88%)
    Title                       : CinemaniaHDD.Net
    Default                     : Yes
    Forced                      : No
    Color range                 : Limited
    Color primaries             : BT.709
    Transfer characteristics    : BT.709
    Matrix coefficients         : BT.709

    Audio #1
    ID                          : 2
    Format                      : AC-3
    Format/Info                 : Audio Coding 3
    Commercial name             : Dolby Digital
    Codec ID                    : A_AC3
    Duration                    : 1 h 9 min
    Bit rate mode               : Constant
    Bit rate                    : 384 kb/s
    Channel(s)                  : 2 channels
    Channel layout              : L R
    Sampling rate               : 48.0 kHz
    Frame rate                  : 31.250 FPS (1536 SPF)
    Compression mode            : Lossy
    Stream size                 : 191 MiB (4%)
    Title                       : Español Latino (AC3) [CinemaniaHDD]
    Language                    : Spanish
    Service kind                : Complete Main
    Default                     : Yes
    Forced                      : No

    Audio #2
    ID                          : 3
    Format                      : E-AC-3
    Format/Info                 : Enhanced AC-3
    Commercial name             : Dolby Digital Plus
    Codec ID                    : A_EAC3
    Duration                    : 1 h 9 min
    Bit rate mode               : Constant
    Bit rate                    : 224 kb/s
    Channel(s)                  : 2 channels
    Channel layout              : L R
    Sampling rate               : 48.0 kHz
    Frame rate                  : 31.250 FPS (1536 SPF)
    Compression mode            : Lossy
    Stream size                 : 112 MiB (2%)
    Title                       : Español Latino (E-AC3) [CinemaniaHDD]
    Language                    : Spanish
    Service kind                : Complete Main
    Default                     : No
    Forced                      : No

    Audio #3
    ID                          : 4
    Format                      : E-AC-3
    Format/Info                 : Enhanced AC-3
    Commercial name             : Dolby Digital Plus
    Codec ID                    : A_EAC3
    Duration                    : 1 h 9 min
    Bit rate mode               : Constant
    Bit rate                    : 640 kb/s
    Channel(s)                  : 6 channels
    Channel layout              : L R C LFE Ls Rs
    Sampling rate               : 48.0 kHz
    Frame rate                  : 31.250 FPS (1536 SPF)
    Compression mode            : Lossy
    Stream size                 : 319 MiB (6%)
    Title                       : Inglés (Original) [CinemaniaHDD]
    Language                    : English
    Service kind                : Complete Main
    Default                     : No
    Forced                      : No

    Text #1
    ID                          : 5
    Format                      : UTF-8
    Codec ID                    : S_TEXT/UTF8
    Codec ID/Info               : UTF-8 Plain Text
    Duration                    : 30 min 49 s
    Bit rate                    : 1 b/s
    Count of elements           : 14
    Stream size                 : 405 Bytes (0%)
    Title                       : Forzados [CinemaniaHDD]
    Language                    : Spanish
    Default                     : Yes
    Forced                      : Yes

    Text #2
    ID                          : 6
    Format                      : UTF-8
    Codec ID                    : S_TEXT/UTF8
    Codec ID/Info               : UTF-8 Plain Text
    Duration                    : 1 h 8 min
    Bit rate                    : 43 b/s
    Count of elements           : 811
    Stream size                 : 21.9 KiB (0%)
    Title                       : Español Latino [CinemaniaHDD]
    Language                    : Spanish
    Default                     : No
    Forced                      : No

    Text #3
    ID                          : 7
    Format                      : UTF-8
    Codec ID                    : S_TEXT/UTF8
    Codec ID/Info               : UTF-8 Plain Text
    Duration                    : 1 h 8 min
    Bit rate                    : 52 b/s
    Count of elements           : 1085
    Stream size                 : 26.3 KiB (0%)
    Title                       : Inglés [CinemaniaHDD]
    Language                    : English
    Default                     : No
    Forced                      : No

    Menu
    00:00:00.000                : Amazon Studios
    00:00:05.000                : The Romans are back
    00:01:51.000                : Aulus punishes the deserters
    00:06:39.000                : Opening Credits
    00:07:49.000                : The girls wait for the rite of passage
    00:11:48.000                : Divis seeks for help
    00:16:41.000                : The Solstice ceremony starts
    00:21:53.000                : Islene tries to protect Cait from the Romans
    00:23:56.000                : Tribes are joined by marital ceremony
    00:29:16.000                : Cait wakes up after the tragedy
    00:30:49.000                : King Pellenor blames his son for the failed plan
    00:33:49.000                : Cait faces grief of losing her family
    00:36:09.000                : Aulus gives Antonius an advice
    00:39:16.000                : Lindon reports what he saw as prisoner
    00:41:52.000                : Aulus plans a new attack
    00:44:01.000                : Divis explains to Cait who  the Romans are
    00:45:02.000                : The Romans march through the woods
    00:45:43.000                : Cait wants to go to Underworld
    00:46:55.000                : Antonius wakes up as a prisoner
    00:47:29.000                : The tribes are divided
    00:48:13.000                : Antonius is threatened by Veran
    00:50:41.000                : Phelan has to make some sacrifices for the tribe
    00:54:41.000                : Cait questions Divis of being an outcast
    01:00:34.000                : Veran starts a ritual with Antonius
    01:01:24.000                : Aulus describes his plan to Lucius
    01:05:48.000                : A warning from the Underworld
    01:09:11.000                : End Credits

     

  • Peso: 5.16 GiB Aprox ---- 32 GiB in 9 Chapters.

Sinopsis

Relata el intento del ejército imperial romano de conquistar las salvajes tierras británicas dominadas por clanes y druidas. Es el año 43 a.C. y Kerra (Reilly), la hija del rey de los Cantii, se ve forzada a dejar a un lado sus diferencias con su archi enemiga, la reina Antedia (Wanamaker) para combatir juntas a los invasores. Los romanos, liderados por el General Aulus Plautius (Morrisey), llegan con la determinación de triunfar donde Julio César fracasó, y conquistar esta tierra mítica en los límites del Imperio Romano. Aulus es un líder fuerte, pero esconde un oscuro secreto que amenaza su misión. Mientras las tribus y los druidas se unen para combatir a los romanos, Kerra se enfrenta al mayor reto de su vida como líder de la resistencia.

Ficha técnica

Video trailer de la película

Enlaces de descarga

Rip de Bluray

Descargar Britannia (2018) Primera Temporada AMZN WEB-DL 1080p Latino




Aportes de DPeliculasHDmega la pass es:dpeliculashdmega.org Aportes de CinemaniaHD la pass es:cinemaniahdd.com Aportes recientes:cinemaniahdd.net

Películas relacionadas

descargar Britannia (2018) Primera Temporada AMZN WEB-DL 1080p Latino 1080p 1080p gratis, Britannia (2018) Primera Temporada AMZN WEB-DL 1080p Latino 1080p mega 1 link, Britannia (2018) Primera Temporada AMZN WEB-DL 1080p Latino 1080p serie completa, descargar Britannia (2018) Primera Temporada AMZN WEB-DL 1080p Latino 1080p gratis en mega.

Britannia (2018) Primera Temporada AMZN WEB-DL 1080p Latino pelicula full hd, Britannia (2018) Primera Temporada AMZN WEB-DL 1080p Latino mega latino, Britannia (2018) Primera Temporada AMZN WEB-DL 1080p Latino 4k latino, Britannia (2018) Primera Temporada AMZN WEB-DL 1080p Latino pelicula completa, Britannia (2018) Primera Temporada AMZN WEB-DL 1080p Latino descargar gratis, descargar Britannia (2018) Primera Temporada AMZN WEB-DL 1080p Latino pelicula latino, Britannia (2018) Primera Temporada AMZN WEB-DL 1080p Latino 1 link mega, Britannia (2018) Primera Temporada AMZN WEB-DL 1080p Latino 1 link google drive, Britannia (2018) Primera Temporada AMZN WEB-DL 1080p Latino hd 1080p latino.
Comentarios 0