×

¿Problemas para descargar con Mozilla, EDGE? Deshabilita la opción "Abrir vinculos en una pestaña nueva" tal como lo muestra ésta imagen.

La adorable revoltosa (1938) REMUX 1080p Latino

21 vistas

Información de La adorable revoltosa (1938) REMUX 1080p Latino

Datos de la película

  • Calidad: Full 1080p
  • Audio: Se especifica abajo de la Sinopsis
  • Subtitulos: Español Latino SRT - Ingles SRT
  • Resolución: 1920x1080p
  • Formato: MKV
  • Codec: H.264
  • Encoder: CinefiloCool
  • Mediainfo: Clic para Mostrar Datos Ver
  • La Adorable Revoltosa (1938) REMUX 1080p Latino-CMHDD.mkv Format                      : Matroska Format version              : Version 4 File size                   : 18.6 GiB Duration                    : 1 h 42 min Overall bit rate mode       : Variable Overall bit rate            : 26.0 Mb/s Movie name                  : Bringing Up Baby (1938) CinemaniaHDD.Net Encoded date                : UTC 2023-01-21 04:14:44 Writing application         : mkvmerge v56.1.0 ('My Friend') 64-bit Writing library             : libebml v1.4.2 + libmatroska v1.6.4 Attachments                 : CINEMANIAHD.png Video ID                          : 1 Format                      : AVC Format/Info                 : Advanced Video Codec Format profile              : High@L4.1 Format settings             : CABAC / 3 Ref Frames Format settings, CABAC      : Yes Format settings, Reference  : 3 frames Codec ID                    : V_MPEG4/ISO/AVC Duration                    : 1 h 42 min Bit rate mode               : Variable Bit rate                    : 25.3 Mb/s Maximum bit rate            : 32.5 Mb/s Width                       : 1 920 pixels Height                      : 1 080 pixels Display aspect ratio        : 16:9 Frame rate mode             : Constant Frame rate                  : 23.976 (24000/1001) FPS Standard                    : NTSC Color space                 : YUV Chroma subsampling          : 4:2:0 Bit depth                   : 8 bits Scan type                   : Progressive Bits/(Pixel*Frame)          : 0.509 Stream size                 : 18.1 GiB (98%) Title                       : REMUX HD1080p [CinemaniaHDD] Language                    : English Default                     : Yes Forced                      : Yes Color range                 : Limited Color primaries             : BT.709 Transfer characteristics    : BT.709 Matrix coefficients         : BT.709 Audio #1 ID                          : 2 Format                      : AC-3 Format/Info                 : Audio Coding 3 Commercial name             : Dolby Digital Codec ID                    : A_AC3 Duration                    : 1 h 42 min Bit rate mode               : Constant Bit rate                    : 256 kb/s Channel(s)                  : 2 channels Channel layout              : L R Sampling rate               : 48.0 kHz Frame rate                  : 31.250 FPS (1536 SPF) Compression mode            : Lossy Stream size                 : 188 MiB (1%) Title                       : Español Latino [CinemaniaHDD] Language                    : Spanish Service kind                : Complete Main Default                     : Yes Forced                      : Yes Audio #2 ID                          : 3 Format                      : FLAC Format/Info                 : Free Lossless Audio Codec Codec ID                    : A_FLAC Duration                    : 1 h 42 min Bit rate mode               : Variable Bit rate                    : 369 kb/s Channel(s)                  : 2 channels Channel layout              : L R Sampling rate               : 48.0 kHz Frame rate                  : 11.719 FPS (4096 SPF) Bit depth                   : 16 bits Compression mode            : Lossless Stream size                 : 270 MiB (1%) Title                       : Ingles [CinemaniaHDD] Writing library             : libFLAC 1.2.1 (UTC 2007-09-17) Language                    : English Default                     : No Forced                      : No Text #1 ID                          : 4 Format                      : UTF-8 Codec ID                    : S_TEXT/UTF8 Codec ID/Info               : UTF-8 Plain Text Duration                    : 1 h 41 min Bit rate                    : 0 b/s Count of elements           : 4 Stream size                 : 97.0 Bytes (0%) Title                       : Forzados-SRT [CinemaniaHDD] Language                    : Spanish Default                     : Yes Forced                      : Yes Text #2 ID                          : 5 Format                      : UTF-8 Codec ID                    : S_TEXT/UTF8 Codec ID/Info               : UTF-8 Plain Text Duration                    : 1 h 41 min Bit rate                    : 98 b/s Count of elements           : 1826 Stream size                 : 72.6 KiB (0%) Title                       : Español-SRT [CinemaniaHDD] Language                    : Spanish Default                     : No Forced                      : No Text #3 ID                          : 6 Format                      : UTF-8 Codec ID                    : S_TEXT/UTF8 Codec ID/Info               : UTF-8 Plain Text Duration                    : 1 h 39 min Bit rate                    : 114 b/s Count of elements           : 2895 Stream size                 : 83.5 KiB (0%) Title                       : Ingles [CinemaniaHDD] Language                    : English Default                     : No Forced                      : No Menu 00:00:00.000                : Chapter 1 00:08:56.035                : Chapter 2 00:19:46.185                : Chapter 3 00:27:31.108                : Chapter 4 00:41:37.203                : Chapter 5 00:48:50.427                : Chapter 6 00:59:42.913                : Chapter 7 01:10:20.842                : Chapter 8 01:20:42.713                : Chapter 9 01:33:59.926                : Chapter 10
  • Peso: 18.6 GiB

Sinopsis

Descargar La adorable revoltosa (1938) REMUX 1080p Latino. David Huxley (Cary Grant) es un paleontólogo tímido y despistado que está a punto de acabar la laboriosa reconstrucción del esqueleto de un brontosaurio, al que sólo le falta una clavícula intercostal. También está a punto de casarse con su anodina secretaria. En un partido de golf con el abogado de una solterona millonaria, potencial mecenas del museo para el que trabaja, Huxley conoce a Susan Vance (Katharine Hepburn), una joven adinerada y caprichosa que hará lo posible para que no culmine ninguno de sus dos proyectos: se dedicará a manipular a Huxley para seducirlo con un estilo muy peculiar: le abolla el coche, le desgarra el smoking, esconde su ropa, le rompe las gafas y por si fuera poco, lo embauca para que cuide a un joven leopardo llamado «Baby».

Audio Español Latino AC3 2.0 Web – Ingles FLAC 2.0 Bluray

Ficha técnica

Video trailer de la película

Enlaces de descarga

Rip de Bluray

Descargar La adorable revoltosa (1938) REMUX 1080p Latino


Aportes de DPeliculasHDmega la pass es:dpeliculashdmega.org Aportes de CinemaniaHD la pass es:cinemaniahdd.com
Guardado en : Comedia , Remux , Romance

Películas relacionadas

  • Mi amigo el dragón (2016) REMUX 1080p Latino

    Mi amigo el dragón (2016) REMUX 1080p Latino

    2016
    Mi amigo el dragón (2016) REMUX 1080p Latino

    1h 43m 2016

    Descargar Mi amigo el dragón (2016) REMUX 1080p Latino. Durante años el Sr. Meacham, un viejo tallador...

    Director: Joe Nolan

    Género: Aventura

    Actores: William J. Rawbone

  • El discurso del Rey (2010) REMUX 1080p Latino

    El discurso del Rey (2010) REMUX 1080p Latino

    2010
    El discurso del Rey (2010) REMUX 1080p Latino

    1h 58m 2010

    Descargar El discurso del Rey (2010) REMUX 1080p Latino. El duque de York se convirtió en rey de Gran...

    Director: Tom Hooper

    Género: Drama

    Actores: Tony Earnshaw

descargar La adorable revoltosa (1938) REMUX 1080p Latino Full 1080p 1080p gratis, La adorable revoltosa (1938) REMUX 1080p Latino Full 1080p mega 1 link, La adorable revoltosa (1938) REMUX 1080p Latino Full 1080p pelicula completa, descargar La adorable revoltosa (1938) REMUX 1080p Latino Full 1080p gratis en mega.

La adorable revoltosa (1938) REMUX 1080p Latino pelicula full hd, La adorable revoltosa (1938) REMUX 1080p Latino mega latino, La adorable revoltosa (1938) REMUX 1080p Latino 4k latino, La adorable revoltosa (1938) REMUX 1080p Latino pelicula completa, La adorable revoltosa (1938) REMUX 1080p Latino descargar gratis, descargar La adorable revoltosa (1938) REMUX 1080p Latino pelicula latino, La adorable revoltosa (1938) REMUX 1080p Latino 1 link mega, La adorable revoltosa (1938) REMUX 1080p Latino 1 link google drive, La adorable revoltosa (1938) REMUX 1080p Latino hd 1080p latino.
Comentarios 0