×

¿Problemas para descargar con Mozilla, EDGE? Deshabilita la opción "Abrir vinculos en una pestaña nueva" tal como lo muestra ésta imagen.

Bridge to Terabithia (2007) REMUX 1080p Latino – CMHDD

272 vistas

Información de Bridge to Terabithia (2007) REMUX 1080p Latino – CMHDD

Datos de la película

  • Calidad: Full 1080p
  • Audio: Español Latino AC3 5.1 BLURAY - Ingles DTS 5.1 BLURAY
  • Subtitulos: Español Latino PGS
  • Resolución: 1920x1080p
  • Formato: MKV
  • Codec: H.264
  • Encoder: Dracarys
  • Mediainfo: Clic para Mostrar Datos Ver
  • Format                      : Matroska
    Format version              : Version 4
    File size                   : 20.6 GiB
    Duration                    : 1 h 35 min
    Overall bit rate mode       : Variable
    Overall bit rate            : 30.8 Mb/s
    Movie name                  : Bridge to Terabithia (2007) REMUX 1080p Latino - CMHDD
    Encoded date                : UTC 2023-04-06 02:22:57
    Writing application         : mkvmerge v47.0.0 ('Black Flag') 64-bit
    Writing library             : libebml v1.3.10 + libmatroska v1.5.2

    Video
    ID                          : 1
    ID in the original source m : 4113 (0x1011)
    Format                      : AVC
    Format/Info                 : Advanced Video Codec
    Format profile              : High@L4.1
    Format settings             : CABAC / 3 Ref Frames
    Format settings, CABAC      : Yes
    Format settings, Reference  : 3 frames
    Codec ID                    : V_MPEG4/ISO/AVC
    Duration                    : 1 h 35 min
    Bit rate mode               : Variable
    Bit rate                    : 22.6 Mb/s
    Maximum bit rate            : 40.0 Mb/s
    Width                       : 1 920 pixels
    Height                      : 1 080 pixels
    Display aspect ratio        : 16:9
    Frame rate mode             : Constant
    Frame rate                  : 23.976 (24000/1001) FPS
    Standard                    : NTSC
    Color space                 : YUV
    Chroma subsampling          : 4:2:0
    Bit depth                   : 8 bits
    Scan type                   : Progressive
    Bits/(Pixel*Frame)          : 0.455
    Stream size                 : 15.1 GiB (73%)
    Default                     : Yes
    Forced                      : No
    Color range                 : Limited
    Color primaries             : BT.709
    Transfer characteristics    : BT.709
    Matrix coefficients         : BT.709
    Original source medium      : Blu-ray

    Audio #1
    ID                          : 2
    ID in the original source m : 4352 (0x1100)
    Format                      : PCM
    Format settings             : Little / Signed
    Codec ID                    : A_PCM/INT/LIT
    Duration                    : 1 h 35 min
    Bit rate mode               : Constant
    Bit rate                    : 6 912 kb/s
    Channel(s)                  : 6 channels
    Sampling rate               : 48.0 kHz
    Frame rate                  : 200.000 FPS (240 SPF)
    Bit depth                   : 24 bits
    Stream size                 : 4.61 GiB (22%)
    Language                    : English
    Default                     : No
    Forced                      : No
    Original source medium      : Blu-ray

    Audio #2
    ID                          : 3
    ID in the original source m : 4353 (0x1101)
    Format                      : AC-3
    Format/Info                 : Audio Coding 3
    Commercial name             : Dolby Digital
    Codec ID                    : A_AC3
    Duration                    : 1 h 35 min
    Bit rate mode               : Constant
    Bit rate                    : 640 kb/s
    Channel(s)                  : 6 channels
    Channel layout              : L R C LFE Ls Rs
    Sampling rate               : 48.0 kHz
    Frame rate                  : 31.250 FPS (1536 SPF)
    Compression mode            : Lossy
    Stream size                 : 437 MiB (2%)
    Language                    : English
    Service kind                : Complete Main
    Default                     : No
    Forced                      : No
    Original source medium      : Blu-ray

    Audio #3
    ID                          : 4
    ID in the original source m : 4355 (0x1103)
    Format                      : AC-3
    Format/Info                 : Audio Coding 3
    Commercial name             : Dolby Digital
    Codec ID                    : A_AC3
    Duration                    : 1 h 35 min
    Bit rate mode               : Constant
    Bit rate                    : 640 kb/s
    Channel(s)                  : 6 channels
    Channel layout              : L R C LFE Ls Rs
    Sampling rate               : 48.0 kHz
    Frame rate                  : 31.250 FPS (1536 SPF)
    Compression mode            : Lossy
    Stream size                 : 437 MiB (2%)
    Language                    : Spanish
    Service kind                : Complete Main
    Default                     : Yes
    Forced                      : No
    Original source medium      : Blu-ray

    Text #1
    ID                          : 5
    ID in the original source m : 4610 (0x1202)
    Format                      : PGS
    Muxing mode                 : zlib
    Codec ID                    : S_HDMV/PGS
    Codec ID/Info               : Picture based subtitle format used on BDs/HD-DVDs
    Duration                    : 1 h 27 min
    Bit rate                    : 20.8 kb/s
    Frame rate                  : 0.358 FPS
    Count of elements           : 1870
    Stream size                 : 12.9 MiB (0%)
    Language                    : Spanish
    Default                     : No
    Forced                      : No
    Original source medium      : Blu-ray

    Text #2
    ID                          : 6
    ID in the original source m : 4615 (0x1207)
    Format                      : PGS
    Muxing mode                 : zlib
    Codec ID                    : S_HDMV/PGS
    Codec ID/Info               : Picture based subtitle format used on BDs/HD-DVDs
    Duration                    : 1 h 31 min
    Bit rate                    : 44.1 kb/s
    Frame rate                  : 0.568 FPS
    Count of elements           : 3113
    Stream size                 : 28.8 MiB (0%)
    Language                    : Spanish
    Default                     : No
    Forced                      : No
    Original source medium      : Blu-ray

    Menu
    00:00:00.000                : en:Capítulo 01
    00:05:55.355                : en:Capítulo 02
    00:08:16.162                : en:Capítulo 03
    00:12:52.938                : en:Capítulo 04
    00:20:07.247                : en:Capítulo 05
    00:27:22.807                : en:Capítulo 06
    00:38:50.828                : en:Capítulo 07
    00:48:29.406                : en:Capítulo 08
    00:54:57.752                : en:Capítulo 09
    00:57:36.536                : en:Capítulo 10
    01:05:47.985                : en:Capítulo 11
    01:09:52.813                : en:Capítulo 12
    01:13:10.552                : en:Capítulo 13
    01:23:52.736                : en:Capítulo 14
    01:30:38.766                : en:Capítulo 15

  • Peso: 20.6 GiB

Sinopsis

Jess Aarons, un chico que se siente extraño tanto en el colegio como en su propia casa, se ha entrenado durante todo el verano para correr una carrera; pero llega al colegio Leslie Burke y le gana. A pesar de ello, pronto se hacen amigos. Leslie, aficionada a contar fantásticas y mágicas historias, le abre a Jess las puertas de un mundo dominado por la imaginación. A Jess le gusta dibujar, pero nunca había compartido esa afición con nadie. Los dos crean el reino secreto de Terabithia, un lugar mágico cuya entrada sólo ellos conocen. Allí reinan, luchan contra el Maestro Oscuro y sus criaturas y trazan planes para vengarse de los compañeros prepotentes del colegio.

Ficha técnica

Video trailer de la película

Enlaces de descarga

Rip de Bluray

Descargar Bridge to Terabithia (2007) REMUX 1080p Latino – CMHDD


Aportes de DPeliculasHDmega la pass es:dpeliculashdmega.org Aportes de CinemaniaHD la pass es:cinemaniahdd.com Aportes recientes:cinemaniahdd.net
Guardado en : Aventura , Drama , Familia

Películas relacionadas

descargar Bridge to Terabithia (2007) REMUX 1080p Latino – CMHDD Full 1080p 1080p gratis, Bridge to Terabithia (2007) REMUX 1080p Latino – CMHDD Full 1080p mega 1 link, Bridge to Terabithia (2007) REMUX 1080p Latino – CMHDD Full 1080p pelicula completa, descargar Bridge to Terabithia (2007) REMUX 1080p Latino – CMHDD Full 1080p gratis en mega.

Bridge to Terabithia (2007) REMUX 1080p Latino – CMHDD pelicula full hd, Bridge to Terabithia (2007) REMUX 1080p Latino – CMHDD mega latino, Bridge to Terabithia (2007) REMUX 1080p Latino – CMHDD 4k latino, Bridge to Terabithia (2007) REMUX 1080p Latino – CMHDD pelicula completa, Bridge to Terabithia (2007) REMUX 1080p Latino – CMHDD descargar gratis, descargar Bridge to Terabithia (2007) REMUX 1080p Latino – CMHDD pelicula latino, Bridge to Terabithia (2007) REMUX 1080p Latino – CMHDD 1 link mega, Bridge to Terabithia (2007) REMUX 1080p Latino – CMHDD 1 link google drive, Bridge to Terabithia (2007) REMUX 1080p Latino – CMHDD hd 1080p latino.
Comentarios 0