×

¿Problemas para descargar con Mozilla, EDGE? Deshabilita la opción "Abrir vinculos en una pestaña nueva" tal como lo muestra ésta imagen.

Guerra De Novias (2009) REMUX 1080p Latino

234 vistas

Información de Guerra De Novias (2009) REMUX 1080p Latino

Datos de la película

  • Calidad: Full 1080p
  • Audio: Se especifica abajo de la Sinopsis
  • Subtitulos: Español Latino PGS - Ingles PGS
  • Resolución: 1920x1080p
  • Formato: MKV
  • Codec: H.264
  • Encoder: CinefiloCool
  • Mediainfo: Clic para Mostrar Datos Ver
  • Guerra De Novias (2009) REMUX 1080p Latino-CMHDD.mkv
    Format                      : Matroska
    Format version              : Version 4
    File size                   : 19.8 GiB
    Duration                    : 1 h 28 min
    Overall bit rate mode       : Variable
    Overall bit rate            : 31.9 Mb/s
    Movie name                  : Bride Wars (2009) CinemaniaHDD.Net
    Encoded date                : UTC 2021-02-03 07:10:08
    Writing application         : mkvmerge v51.0.0 ('I Wish') 64-bit
    Writing library             : libebml v1.4.0 + libmatroska v1.6.2
    Attachments                 : CINEMANIAHD.png

    Video
    ID                          : 1
    ID in the original source m : 4113 (0x1011)
    Format                      : AVC
    Format/Info                 : Advanced Video Codec
    Format profile              : High@L4.1
    Format settings             : CABAC / 2 Ref Frames
    Format settings, CABAC      : Yes
    Format settings, Reference  : 2 frames
    Codec ID                    : V_MPEG4/ISO/AVC
    Duration                    : 1 h 28 min
    Bit rate mode               : Variable
    Bit rate                    : 27.0 Mb/s
    Width                       : 1 920 pixels
    Height                      : 1 080 pixels
    Display aspect ratio        : 16:9
    Frame rate mode             : Constant
    Frame rate                  : 23.976 (24000/1001) FPS
    Color space                 : YUV
    Chroma subsampling          : 4:2:0
    Bit depth                   : 8 bits
    Scan type                   : Progressive
    Bits/(Pixel*Frame)          : 0.542
    Stream size                 : 16.8 GiB (85%)
    Title                       : REMUX HD1080p [CinemaniaHDD]
    Default                     : Yes
    Forced                      : Yes
    Original source medium      : Blu-ray

    Audio #1
    ID                          : 2
    Format                      : E-AC-3
    Format/Info                 : Enhanced AC-3
    Commercial name             : Dolby Digital Plus
    Codec ID                    : A_EAC3
    Duration                    : 1 h 28 min
    Bit rate mode               : Constant
    Bit rate                    : 640 kb/s
    Channel(s)                  : 6 channels
    Channel layout              : L R C LFE Ls Rs
    Sampling rate               : 48.0 kHz
    Frame rate                  : 31.250 FPS (1536 SPF)
    Compression mode            : Lossy
    Stream size                 : 407 MiB (2%)
    Title                       : Español Latino [CinemaniaHDD]
    Language                    : Spanish
    Service kind                : Complete Main
    Default                     : Yes
    Forced                      : Yes

    Audio #2
    ID                          : 3
    ID in the original source m : 4352 (0x1100)
    Format                      : DTS XLL
    Format/Info                 : Digital Theater Systems
    Commercial name             : DTS-HD Master Audio
    Codec ID                    : A_DTS
    Duration                    : 1 h 28 min
    Bit rate mode               : Variable
    Bit rate                    : 3 565 kb/s
    Channel(s)                  : 6 channels
    Channel layout              : C L R Ls Rs LFE
    Sampling rate               : 48.0 kHz
    Frame rate                  : 93.750 FPS (512 SPF)
    Bit depth                   : 24 bits
    Compression mode            : Lossless
    Stream size                 : 2.22 GiB (11%)
    Title                       : Ingles [CinemaniaHDD]
    Language                    : English
    Default                     : No
    Forced                      : No
    Original source medium      : Blu-ray

    Audio #3
    ID                          : 4
    Format                      : AC-3
    Format/Info                 : Audio Coding 3
    Commercial name             : Dolby Digital
    Codec ID                    : A_AC3
    Duration                    : 1 h 28 min
    Bit rate mode               : Constant
    Bit rate                    : 640 kb/s
    Channel(s)                  : 6 channels
    Channel layout              : L R C LFE Ls Rs
    Sampling rate               : 48.0 kHz
    Frame rate                  : 31.250 FPS (1536 SPF)
    Compression mode            : Lossy
    Stream size                 : 407 MiB (2%)
    Title                       : Español Latino AC3 [CinemaniaHDD]
    Language                    : Spanish
    Service kind                : Complete Main
    Default                     : No
    Forced                      : No

    Text #1
    ID                          : 5
    Format                      : PGS
    Muxing mode                 : zlib
    Codec ID                    : S_HDMV/PGS
    Codec ID/Info               : Picture based subtitle format used on BDs/HD-DVDs
    Duration                    : 1 h 22 min
    Bit rate                    : 202 b/s
    Count of elements           : 18
    Stream size                 : 123 KiB (0%)
    Title                       : Forzados-PGS [CinemaniaHDD]
    Language                    : Spanish
    Default                     : No
    Forced                      : No

    Text #2
    ID                          : 6
    ID in the original source m : 4609 (0x1201)
    Format                      : PGS
    Muxing mode                 : zlib
    Codec ID                    : S_HDMV/PGS
    Codec ID/Info               : Picture based subtitle format used on BDs/HD-DVDs
    Duration                    : 1 h 23 min
    Bit rate                    : 42.7 kb/s
    Count of elements           : 2596
    Stream size                 : 25.6 MiB (0%)
    Title                       : Español-PGS [CinemaniaHDD]
    Language                    : Spanish
    Default                     : No
    Forced                      : No
    Original source medium      : Blu-ray

    Text #3
    ID                          : 7
    ID in the original source m : 4608 (0x1200)
    Format                      : PGS
    Muxing mode                 : zlib
    Codec ID                    : S_HDMV/PGS
    Codec ID/Info               : Picture based subtitle format used on BDs/HD-DVDs
    Duration                    : 1 h 22 min
    Bit rate                    : 48.2 kb/s
    Count of elements           : 2693
    Stream size                 : 28.4 MiB (0%)
    Title                       : Ingles-PGS [CinemaniaHDD]
    Language                    : English
    Default                     : No
    Forced                      : No
    Original source medium      : Blu-ray

    Text #4
    ID                          : 8
    Format                      : UTF-8
    Codec ID                    : S_TEXT/UTF8
    Codec ID/Info               : UTF-8 Plain Text
    Duration                    : 1 h 22 min
    Bit rate                    : 0 b/s
    Count of elements           : 9
    Stream size                 : 189 Bytes (0%)
    Title                       : Forzados-SRT [CinemaniaHDD]
    Language                    : Spanish
    Default                     : Yes
    Forced                      : Yes

    Text #5
    ID                          : 9
    Format                      : UTF-8
    Codec ID                    : S_TEXT/UTF8
    Codec ID/Info               : UTF-8 Plain Text
    Duration                    : 1 h 23 min
    Bit rate                    : 78 b/s
    Count of elements           : 1367
    Stream size                 : 48.3 KiB (0%)
    Title                       : Español-SRT [CinemaniaHDD]
    Language                    : Spanish
    Default                     : No
    Forced                      : No

    Menu
    00:00:00.000                : en:Chapter 01
    00:01:59.202                : en:Chapter 02
    00:05:51.476                : en:Chapter 03
    00:08:21.125                : en:Chapter 04
    00:12:44.972                : en:Chapter 05
    00:15:15.915                : en:Chapter 06
    00:18:15.219                : en:Chapter 07
    00:21:57.774                : en:Chapter 08
    00:23:49.219                : en:Chapter 09
    00:25:07.088                : en:Chapter 10
    00:29:11.374                : en:Chapter 11
    00:32:31.699                : en:Chapter 12
    00:36:02.201                : en:Chapter 13
    00:38:41.986                : en:Chapter 14
    00:42:50.943                : en:Chapter 15
    00:45:20.968                : en:Chapter 16
    00:48:32.326                : en:Chapter 17
    00:51:42.682                : en:Chapter 18
    00:55:52.515                : en:Chapter 19
    00:58:02.854                : en:Chapter 20
    01:03:44.821                : en:Chapter 21
    01:06:27.692                : en:Chapter 22
    01:12:43.275                : en:Chapter 23
    01:14:11.113                : en:Chapter 24
    01:16:47.394                : en:Chapter 25
    01:18:53.395                : en:Chapter 26
    01:21:37.350                : en:Chapter 27
    01:23:30.171                : en:Chapter 28

  • Peso: 19.8 GiB

Sinopsis

Descargar Guerra De Novias (2009) REMUX 1080p Latino. Emma (Anne Hathaway) y Liv (Kate Hudson) han sido desde siempre muy buenas amigas (de aquellas que se apoyan en todo, a las buenas y a las malas) y, desde su infancia, han soñado con casarse en junio en el Hotel Plaza de Nueva York. Una ilusión que van a poder compartir y planificar juntas, ya que sus peticiones de mano ocurren con poco tiempo de diferencia y sus bodas van a ser el mismo fin de semana. Un error administrativo, sin embargo, agrieta esta felicidad: las bodas han sido reservadas para el mismo día, y una de las dos va a tener que cambiar la fecha. Sin estar dispuestas a renunciar a su sueño, y utilizando todas las armas que tienen a su alcance, empezará entonces una feroz competición entre Liv y Emma para conseguir la reserva del Hotel Plaza.

Audio Español Latino EAC3 + AC3 5.1 – Ingles DTS-HD 5.1 Bluray

Ficha técnica

Video trailer de la película

Enlaces de descarga

Rip de Bluray

Descargar Guerra De Novias (2009) REMUX 1080p Latino




Aportes de DPeliculasHDmega la pass es:dpeliculashdmega.org Aportes de CinemaniaHD la pass es:cinemaniahdd.com
Guardado en : Comedia , Remux , Romance

Películas relacionadas

  • Warning (2021) REMUX 1080p Latino

    Warning (2021) REMUX 1080p Latino

    2021
    Warning (2021) REMUX 1080p Latino

    1h 25m 2021

    Descargar Warning (2021) REMUX 1080p Latino. Ambientada en un futuro no muy lejano, la obra reflexiona...

    Director: Agata Alexander

    Género: Ciencia ficción

    Actores: Toni Garrn

  • Paratemporal (2019) REMUX 1080p Latino

    Paratemporal (2019) REMUX 1080p Latino

    2020
    Paratemporal (2019) REMUX 1080p Latino

    1h 42m 2020

    Descargar Paratemporal (2019) REMUX 1080p Latino. Dos paramédicos de Nueva Orleans ven cómo sus vidas...

    Director: Sandy Parker

    Género: Ciencia ficción

    Actores: Walker Babington

  • Emergency (2022) AMZN WEB-DL 1080p Latino

    Emergency (2022) AMZN WEB-DL 1080p Latino

    2022
    Emergency (2022) AMZN WEB-DL 1080p Latino

    1h 45m 2022

    Listos para una noche legendaria de fiestas, tres estudiantes universitarios deben sopesar...

    Director: Carey Williams

    Género: Comedia

    Actores: Sebastian Chacon

  • El Tiempo Es Ahora (2022) AMZN Web-DL 1080p Latino

    El Tiempo Es Ahora (2022) AMZN Web-DL 1080p Latino

    2021
    El Tiempo Es Ahora (2022) AMZN Web-DL 1080p Latino

    1h 48m 2021

    Descargar El Tiempo Es Ahora (2022) AMZN Web-DL 1080p Latino. Un accidente obliga a Vivien y Royan a...

    Director: Elisa Amoruso

    Género: Drama

    Actores: Sebastiano Pigazzi

Guerra De Novias (2009) REMUX 1080p Latino pelicula full hd, Guerra De Novias (2009) REMUX 1080p Latino mega latino, Guerra De Novias (2009) REMUX 1080p Latino 4k latino, Guerra De Novias (2009) REMUX 1080p Latino pelicula completa, Guerra De Novias (2009) REMUX 1080p Latino descargar gratis, descargar Guerra De Novias (2009) REMUX 1080p Latino pelicula latino, Guerra De Novias (2009) REMUX 1080p Latino 1 link mega, Guerra De Novias (2009) REMUX 1080p Latino 1 link google drive, Guerra De Novias (2009) REMUX 1080p Latino hd 1080p latino.
Comentarios 0