×

¿Problemas para descargar con Mozilla, EDGE? Deshabilita la opción "Abrir vinculos en una pestaña nueva" tal como lo muestra ésta imagen.

La novia de Chucky (1998) Full HD 1080p Latino

2.330 vistas

Información de La novia de Chucky (1998) Full HD 1080p Latino

Datos de la película

  • Calidad: Full 1080p
  • Audio: Español Latino AC3 2.0 BLURAY - Ingles DTS 5.1 BLURAY
  • Subtitulos: Español Latino PGS - Ingles PGS
  • Resolución: 1920x1080p
  • Formato: MKV
  • Codec: H.264
  • Encoder: dpelis1
  • Mediainfo: Clic para Mostrar Datos Ver
  • La Novia De Chucky (1998) Full HD 1080p Latino-CMHDD.mkv
    Format                      : Matroska
    Format version              : Version 4
    File size                   : 4.70 GiB
    Duration                    : 1 h 28 min
    Overall bit rate            : 7 582 kb/s
    Movie name                  : Bride Of Chucky (1998) CinemaniaHDD.Net
    Encoded date                : UTC 2022-07-22 04:49:18
    Writing application         : mkvmerge v56.1.0 ('My Friend') 64-bit
    Writing library             : libebml v1.4.2 + libmatroska v1.6.4
    Attachments                 : CINEMANIAHD.png

    Video
    ID                          : 1
    Format                      : AVC
    Format/Info                 : Advanced Video Codec
    Format profile              : High@L4.1
    Format settings             : CABAC / 4 Ref Frames
    Format settings, CABAC      : Yes
    Format settings, Reference  : 4 frames
    Codec ID                    : V_MPEG4/ISO/AVC
    Duration                    : 1 h 28 min
    Bit rate                    : 5 859 kb/s
    Width                       : 1 920 pixels
    Height                      : 1 080 pixels
    Display aspect ratio        : 16:9
    Frame rate mode             : Constant
    Frame rate                  : 23.976 (24000/1001) FPS
    Color space                 : YUV
    Chroma subsampling          : 4:2:0
    Bit depth                   : 8 bits
    Scan type                   : Progressive
    Bits/(Pixel*Frame)          : 0.118
    Stream size                 : 3.64 GiB (77%)
    Title                       : Full HD1080p [CinemaniaHDD]
    Writing library             : x264 core 148 r2708 86b7198
    Encoding settings           : cabac=1 / ref=4 / deblock=1:0:0 / analyse=0x3:0x133 / me=esa / subme=10 / psy=1 / psy_rd=1.00:0.00 / mixed_ref=1 / me_range=24 / chroma_me=1 / trellis=2 / 8x8dct=1 / cqm=0 / deadzone=21,11 / fast_pskip=1 / chroma_qp_offset=-2 / threads=12 / lookahead_threads=2 / sliced_threads=0 / nr=0 / decimate=1 / interlaced=0 / bluray_compat=0 / constrained_intra=0 / bframes=8 / b_pyramid=2 / b_adapt=2 / b_bias=0 / direct=3 / weightb=1 / open_gop=0 / weightp=2 / keyint=240 / keyint_min=24 / scenecut=40 / intra_refresh=0 / rc_lookahead=60 / rc=crf / mbtree=1 / crf=20.0 / qcomp=0.60 / qpmin=0 / qpmax=69 / qpstep=4 / vbv_maxrate=62500 / vbv_bufsize=78125 / crf_max=0.0 / nal_hrd=none / filler=0 / ip_ratio=1.40 / aq=1:1.00
    Default                     : Yes
    Forced                      : Yes
    Color range                 : Limited
    Color primaries             : BT.709
    Transfer characteristics    : BT.709
    Matrix coefficients         : BT.709

    Audio #1
    ID                          : 2
    Format                      : AC-3
    Format/Info                 : Audio Coding 3
    Commercial name             : Dolby Digital
    Codec ID                    : A_AC3
    Duration                    : 1 h 28 min
    Bit rate mode               : Constant
    Bit rate                    : 192 kb/s
    Channel(s)                  : 2 channels
    Channel layout              : L R
    Sampling rate               : 48.0 kHz
    Frame rate                  : 31.250 FPS (1536 SPF)
    Compression mode            : Lossy
    Stream size                 : 122 MiB (3%)
    Title                       : Español Latino [CinemaniaHDD]
    Language                    : Spanish
    Service kind                : Complete Main
    Default                     : Yes
    Forced                      : Yes

    Audio #2
    ID                          : 3
    Format                      : DTS
    Format/Info                 : Digital Theater Systems
    Codec ID                    : A_DTS
    Duration                    : 1 h 28 min
    Bit rate mode               : Constant
    Bit rate                    : 1 509 kb/s
    Channel(s)                  : 6 channels
    Channel layout              : C L R Ls Rs LFE
    Sampling rate               : 48.0 kHz
    Frame rate                  : 93.750 FPS (512 SPF)
    Bit depth                   : 24 bits
    Compression mode            : Lossy
    Stream size                 : 959 MiB (20%)
    Title                       : Ingles [CinemaniaHDD]
    Language                    : English
    Default                     : No
    Forced                      : No

    Text #1
    ID                          : 4
    Format                      : PGS
    Muxing mode                 : zlib
    Codec ID                    : S_HDMV/PGS
    Codec ID/Info               : Picture based subtitle format used on BDs/HD-DVDs
    Duration                    : 1 h 27 min
    Bit rate                    : 26.5 kb/s
    Count of elements           : 1576
    Stream size                 : 16.7 MiB (0%)
    Title                       : Español-PGS [CinemaniaHDD]
    Language                    : Spanish
    Default                     : No
    Forced                      : No

    Text #2
    ID                          : 5
    Format                      : PGS
    Muxing mode                 : zlib
    Codec ID                    : S_HDMV/PGS
    Codec ID/Info               : Picture based subtitle format used on BDs/HD-DVDs
    Duration                    : 1 h 28 min
    Bit rate                    : 35.0 kb/s
    Count of elements           : 2418
    Stream size                 : 22.0 MiB (0%)
    Title                       : Ingles-PGS [CinemaniaHDD]
    Language                    : English
    Default                     : No
    Forced                      : No

    Text #3
    ID                          : 6
    Format                      : UTF-8
    Codec ID                    : S_TEXT/UTF8
    Codec ID/Info               : UTF-8 Plain Text
    Duration                    : 1 h 14 min
    Bit rate                    : 1 b/s
    Count of elements           : 20
    Stream size                 : 644 Bytes (0%)
    Title                       : Forzados-SRT [CinemaniaHDD]
    Language                    : Spanish
    Default                     : Yes
    Forced                      : Yes

    Text #4
    ID                          : 7
    Format                      : UTF-8
    Codec ID                    : S_TEXT/UTF8
    Codec ID/Info               : UTF-8 Plain Text
    Duration                    : 1 h 27 min
    Bit rate                    : 42 b/s
    Count of elements           : 785
    Stream size                 : 27.5 KiB (0%)
    Title                       : Español-SRT [CinemaniaHDD]
    Language                    : Spanish
    Default                     : No
    Forced                      : No

    Menu
    00:00:00.000                : :Chapter 1
    00:04:05.829                : :Chapter 2
    00:06:32.934                : :Chapter 3
    00:09:28.068                : :Chapter 4
    00:20:40.448                : :Chapter 5
    00:26:57.658                : :Chapter 6
    00:32:52.804                : :Chapter 7
    00:38:46.825                : :Chapter 8
    00:42:43.686                : :Chapter 9
    00:48:53.139                : :Chapter 10
    00:50:57.513                : :Chapter 11
    00:57:18.852                : :Chapter 12
    01:02:54.062                : :Chapter 13
    01:09:31.542                : :Chapter 14
    01:14:59.203                : :Chapter 15
    01:17:42.783                : :Chapter 16
    01:23:26.168                : :Chapter 17
    01:24:54.798                : :Chapter 18

  • Peso: 4,70 GiB

Sinopsis

Descargar La novia de Chucky (1998) Full HD 1080p Latino. Chucky, el muñeco cobra vida asesina despiadada. Tiffany se encargó de revivirlo. Pero su amado no reacciona como se espera. Chucky, falta la compañía de alguien como él, pasar el alma de la muñeca de Tiffany. Con su ayuda, Chucky aspira a recuperar su forma humana. Cuando llegue el tiempo, que deja tras de sí un rastro de muerte y destrucción.

RESUBIDO!!!

Ficha técnica

Video trailer de la película

Enlaces de descarga

Rip de Bluray

Descargar La novia de Chucky (1998) Full HD 1080p Latino




Aportes de DPeliculasHDmega la pass es:dpeliculashdmega.org Aportes de CinemaniaHD la pass es:cinemaniahdd.com

Películas relacionadas

  • Darlings (2022) NF WEB-DL 1080p Latino

    Darlings (2022) NF WEB-DL 1080p Latino

    2022
    Darlings (2022) NF WEB-DL 1080p Latino

    2h 14m 2022

    Descargar Darlings (2022) NF WEB-DL 1080p Latino. Badru espera que su colérico marido cambie si deja...

    Director: Jasmeet K Reen

    Género: Comedia

    Actores: Vijay Varma

  • Temporada de bodas (2022) NF WEB-DL 1080p Latino

    Temporada de bodas (2022) NF WEB-DL 1080p Latino

    2022
    Temporada de bodas (2022) NF WEB-DL 1080p Latino

    1h 39m 2022

    Descargar Temporada de bodas (2022) NF WEB-DL 1080p Latino. En un intento por mantener alejados a sus...

    Director: Tom Dey

    Género: Comedia

    Actores: Suraj Sharma

  • Buba (2022) NF WEB-DL 1080p Latino

    Buba (2022) NF WEB-DL 1080p Latino

    2022
    Buba (2022) NF WEB-DL 1080p Latino

    1h 34m 2022

    Descargar Buba (2022) NF WEB-DL 1080p Latino. Cuando un estafador de un pequeño pueblo se une a la mafia...

    Director: Arne Feldhusen

    Género: Comedia

    Actores: Soma Pysall

La novia de Chucky (1998) Full HD 1080p Latino pelicula full hd, La novia de Chucky (1998) Full HD 1080p Latino mega latino, La novia de Chucky (1998) Full HD 1080p Latino 4k latino, La novia de Chucky (1998) Full HD 1080p Latino pelicula completa, La novia de Chucky (1998) Full HD 1080p Latino descargar gratis, descargar La novia de Chucky (1998) Full HD 1080p Latino pelicula latino, La novia de Chucky (1998) Full HD 1080p Latino 1 link mega, La novia de Chucky (1998) Full HD 1080p Latino 1 link google drive, La novia de Chucky (1998) Full HD 1080p Latino hd 1080p latino.
Comentarios 5
  • AndroidxD - 05 julio, 2017

    La parte 6 cuando llega a 99 bota error, dice fichero dañado y sale tbm en el txt de leer, corrijan eso porfavor !!!

    • dpelis - 05 julio, 2017

      que servidor? ya intento bajar esa parte de otro servidor

  • oso grizzly - 22 junio, 2017

    hola chicos,podrian activar de nuevo la segunda pelicula y esta que es la cuarta? se les agradece el aporte

    • dpelis - 22 junio, 2017

      reparado estimado

  • Aldair Jesus - 01 mayo, 2017

    Muchas gracias por subir toda la saga! Se les agradece el aporte 🙂