×

¿Problemas para descargar con Mozilla, EDGE? Deshabilita la opción "Abrir vinculos en una pestaña nueva" tal como lo muestra ésta imagen.

Brian Banks (2019) WEB-DL 1080p Latino

744 vistas

Información de Brian Banks (2019) WEB-DL 1080p Latino

Datos de la película

  • Calidad: WEBDL
  • Audio: Español Latino AC3 2.0 iTunes - Ingles AC3 5.1 iTunes
  • Subtitulos: Español Latino SRT- FORZADOS SRT
  • Resolución: 1916x796
  • Formato: MKV
  • Codec: H.264
  • Encoder: cinemaniahd
  • Mediainfo: Clic para Mostrar Datos Ver
  • Brian Banks (2019) WEB-DL 1080p Latino.mkv
    Format                      : Matroska
    Format version              : Version 4
    File size                   : 3.62 GiB
    Duration                    : 1 h 39 min
    Overall bit rate            : 5 196 kb/s
    Movie name                  : Brian Banks (2019) WEB-DL 1080p Latino
    Encoded date                : UTC 2019-10-29 05:06:57
    Writing application         : mkvmerge v38.0.0 ('The Silent Type') 64-bit
    Writing library             : libebml v1.3.9 + libmatroska v1.5.2

    Video
    ID                          : 1
    Format                      : AVC
    Format/Info                 : Advanced Video Codec
    Format profile              : High@L4
    Format settings             : CABAC / 5 Ref Frames
    Format settings, CABAC      : Yes
    Format settings, ReFrames   : 5 frames
    Codec ID                    : V_MPEG4/ISO/AVC
    Duration                    : 1 h 39 min
    Bit rate                    : 4 554 kb/s
    Width                       : 1 916 pixels
    Height                      : 796 pixels
    Display aspect ratio        : 2.40:1
    Frame rate mode             : Constant
    Frame rate                  : 23.976 FPS
    Color space                 : YUV
    Chroma subsampling          : 4:2:0
    Bit depth                   : 8 bits
    Scan type                   : Progressive
    Bits/(Pixel*Frame)          : 0.125
    Stream size                 : 3.17 GiB (88%)
    Title                       : CinemaniaHDD
    Language                    : English
    Default                     : Yes
    Forced                      : No
    Color range                 : Limited
    Color primaries             : BT.709
    Transfer characteristics    : BT.709
    Matrix coefficients         : BT.709

    Audio #1
    ID                          : 2
    Format                      : AC-3
    Format/Info                 : Audio Coding 3
    Commercial name             : Dolby Digital
    Codec ID                    : A_AC3
    Duration                    : 1 h 39 min
    Bit rate mode               : Constant
    Bit rate                    : 256 kb/s
    Channel(s)                  : 2 channels
    Channel layout              : L R
    Sampling rate               : 48.0 kHz
    Frame rate                  : 31.250 FPS (1536 SPF)
    Bit depth                   : 16 bits
    Compression mode            : Lossy
    Stream size                 : 183 MiB (5%)
    Title                       : Español latino [CinemaniaHDD]
    Language                    : Spanish
    Service kind                : Complete Main
    Default                     : No
    Forced                      : No

    Audio #2
    ID                          : 3
    Format                      : AC-3
    Format/Info                 : Audio Coding 3
    Commercial name             : Dolby Digital
    Codec ID                    : A_AC3
    Duration                    : 1 h 39 min
    Bit rate mode               : Constant
    Bit rate                    : 384 kb/s
    Channel(s)                  : 6 channels
    Channel layout              : L R C LFE Ls Rs
    Sampling rate               : 48.0 kHz
    Frame rate                  : 31.250 FPS (1536 SPF)
    Bit depth                   : 16 bits
    Compression mode            : Lossy
    Stream size                 : 274 MiB (7%)
    Title                       : Inglés [CinemaniaHDD]
    Language                    : English
    Service kind                : Complete Main
    Default                     : Yes
    Forced                      : No

    Text #1
    ID                          : 4
    Format                      : UTF-8
    Codec ID                    : S_TEXT/UTF8
    Codec ID/Info               : UTF-8 Plain Text
    Duration                    : 1 h 37 min
    Bit rate                    : 1 b/s
    Count of elements           : 39
    Stream size                 : 824 Bytes (0%)
    Title                       : Forzados [CinemaniaHDD]
    Language                    : Spanish
    Default                     : Yes
    Forced                      : No

    Text #2
    ID                          : 5
    Format                      : UTF-8
    Codec ID                    : S_TEXT/UTF8
    Codec ID/Info               : UTF-8 Plain Text
    Duration                    : 1 h 38 min
    Bit rate                    : 63 b/s
    Count of elements           : 1364
    Stream size                 : 45.7 KiB (0%)
    Title                       : Español latino [CinemaniaHDD]
    Language                    : Spanish
    Default                     : No
    Forced                      : No

    Menu
    00:00:00.000                : en:1
    00:05:50.183                : en:2
    00:10:12.528                : en:3
    00:14:01.965                : en:4
    00:20:08.038                : en:5
    00:25:58.054                : en:6
    00:30:18.104                : en:7
    00:34:04.287                : en:8
    00:40:59.493                : en:9
    00:45:16.665                : en:10
    00:50:09.206                : en:11
    00:55:02.122                : en:12
    01:00:46.591                : en:13
    01:04:01.786                : en:14
    01:10:27.338                : en:15
    01:14:44.385                : en:16
    01:17:12.615                : en:17
    01:24:15.912                : en:18
    01:29:25.721                : en:19
    01:35:01.514                : en:20

  • Peso: 3.62 GiB

Sinopsis

Los sueños de un jugador de fútbol americano de jugar en la NFL se detienen cuando es acusado falsamente de violación y enviado a prisión.

Ficha técnica

  • Titulo original: Brian Banks
  • Fecha de lanzamiento: 09-08-2019
  • Director: Tom Shadyac
  • Género: Drama

Video trailer de la película

Enlaces de descarga

Rip de Bluray

Descargar Brian Banks (2019) WEB-DL 1080p Latino




Aportes de DPeliculasHDmega la pass es:dpeliculashdmega.org Aportes de CinemaniaHD la pass es:cinemaniahdd.com
Guardado en : Drama

Películas relacionadas

descargar Brian Banks (2019) WEB-DL 1080p Latino WEBDL 1080p gratis, Brian Banks (2019) WEB-DL 1080p Latino WEBDL mega 1 link, Brian Banks (2019) WEB-DL 1080p Latino WEBDL pelicula completa, descargar Brian Banks (2019) WEB-DL 1080p Latino WEBDL gratis en mega.

Brian Banks (2019) WEB-DL 1080p Latino pelicula full hd, Brian Banks (2019) WEB-DL 1080p Latino mega latino, Brian Banks (2019) WEB-DL 1080p Latino 4k latino, Brian Banks (2019) WEB-DL 1080p Latino pelicula completa, Brian Banks (2019) WEB-DL 1080p Latino descargar gratis, descargar Brian Banks (2019) WEB-DL 1080p Latino pelicula latino, Brian Banks (2019) WEB-DL 1080p Latino 1 link mega, Brian Banks (2019) WEB-DL 1080p Latino 1 link google drive, Brian Banks (2019) WEB-DL 1080p Latino hd 1080p latino.
Comentarios 0