Un amor inquebrantable (2019) REMUX 1080p Latino

501 vistas
1 estrella2 estrellas3 estrellas4 estrellas5 estrellas (Ninguna valoración todavía)
Cargando...

Información de Un amor inquebrantable (2019) REMUX 1080p Latino

Datos de la película

  • Calidad: Full 1080p
  • Audio: Español Latino AC3 5.1 BLURAY - DTS-HD Master 7.1 BLURAY
  • Subtitulos: Español Latino PGS - Ingles PGS
  • Resolución: 1920x1080p
  • Formato: MKV
  • Codec: H.264
  • Encoder: CinefiloCool
  • Mediainfo: Clic para Mostrar Datos Ver
  • Un Amor Inquebrantable (2019) REMUX 1080p Latino-CMHDD.mkv
    Format                      : Matroska
    Format version              : Version 4
    File size                   : 26.3 GiB
    Duration                    : 1 h 56 min
    Overall bit rate mode       : Variable
    Overall bit rate            : 32.4 Mb/s
    Movie name                  : Breakthrough (2019) CinemaniaHDD.Net
    Encoded date                : UTC 2019-07-24 06:03:52
    Writing application         : mkvmerge v35.0.0 ('All The Love In The World') 64-bit
    Writing library             : libebml v1.3.9 + libmatroska v1.5.2
    Attachments                 : CINEMANIAHD.png

    Video
    ID                          : 1
    Format                      : AVC
    Format/Info                 : Advanced Video Codec
    Format profile              : High@L4.1
    Format settings             : CABAC / 4 Ref Frames
    Format settings, CABAC      : Yes
    Format settings, ReFrames   : 4 frames
    Codec ID                    : V_MPEG4/ISO/AVC
    Duration                    : 1 h 56 min
    Bit rate mode               : Variable
    Bit rate                    : 27.2 Mb/s
    Maximum bit rate            : 30.0 Mb/s
    Width                       : 1 920 pixels
    Height                      : 1 080 pixels
    Display aspect ratio        : 16:9
    Frame rate mode             : Constant
    Frame rate                  : 23.976 (24000/1001) FPS
    Color space                 : YUV
    Chroma subsampling          : 4:2:0
    Bit depth                   : 8 bits
    Scan type                   : Progressive
    Bits/(Pixel*Frame)          : 0.547
    Stream size                 : 22.1 GiB (84%)
    Title                       : Full HD1080p [REMUX]
    Default                     : Yes
    Forced                      : No

    Audio #1
    ID                          : 2
    Format                      : AC-3
    Format/Info                 : Audio Coding 3
    Commercial name             : Dolby Digital
    Codec ID                    : A_AC3
    Duration                    : 1 h 56 min
    Bit rate mode               : Constant
    Bit rate                    : 448 kb/s
    Channel(s)                  : 6 channels
    Channel layout              : L R C LFE Ls Rs
    Sampling rate               : 48.0 kHz
    Frame rate                  : 31.250 FPS (1536 SPF)
    Bit depth                   : 16 bits
    Compression mode            : Lossy
    Stream size                 : 373 MiB (1%)
    Title                       : AC3_5.1_Bluray_Esp
    Language                    : Spanish
    Service kind                : Complete Main
    Default                     : Yes
    Forced                      : Yes

    Audio #2
    ID                          : 3
    Format                      : DTS XLL
    Format/Info                 : Digital Theater Systems
    Commercial name             : DTS-HD Master Audio
    Codec ID                    : A_DTS
    Duration                    : 1 h 56 min
    Bit rate mode               : Variable
    Bit rate                    : 4 633 kb/s
    Channel(s)                  : 8 channels
    Channel layout              : C L R LFE Lb Rb Lss Rss
    Sampling rate               : 48.0 kHz
    Frame rate                  : 93.750 FPS (512 SPF)
    Bit depth                   : 24 bits
    Compression mode            : Lossless
    Stream size                 : 3.76 GiB (14%)
    Title                       : DTS-HD_7.1_Bluray_Eng
    Language                    : English
    Default                     : No
    Forced                      : No

    Text #1
    ID                          : 4
    Format                      : PGS
    Muxing mode                 : zlib
    Codec ID                    : S_HDMV/PGS
    Codec ID/Info               : Picture based subtitle format used on BDs/HD-DVDs
    Duration                    : 1 h 55 min
    Bit rate                    : 4 292 b/s
    Count of elements           : 218
    Stream size                 : 3.54 MiB (0%)
    Title                       : Sub_Forzados [PGS]
    Language                    : Spanish
    Default                     : Yes
    Forced                      : Yes

    Text #2
    ID                          : 5
    Format                      : PGS
    Muxing mode                 : zlib
    Codec ID                    : S_HDMV/PGS
    Codec ID/Info               : Picture based subtitle format used on BDs/HD-DVDs
    Duration                    : 1 h 55 min
    Bit rate                    : 58.2 kb/s
    Count of elements           : 3334
    Stream size                 : 48.0 MiB (0%)
    Title                       : Sub_Esp [PGS]
    Language                    : Spanish
    Default                     : No
    Forced                      : No

    Text #3
    ID                          : 6
    Format                      : PGS
    Muxing mode                 : zlib
    Codec ID                    : S_HDMV/PGS
    Codec ID/Info               : Picture based subtitle format used on BDs/HD-DVDs
    Duration                    : 1 h 54 min
    Bit rate                    : 74.3 kb/s
    Count of elements           : 4138
    Stream size                 : 60.9 MiB (0%)
    Title                       : Sub_Eng [PGS]
    Language                    : English
    Default                     : No
    Forced                      : No

    Text #4
    ID                          : 7
    Format                      : UTF-8
    Codec ID                    : S_TEXT/UTF8
    Codec ID/Info               : UTF-8 Plain Text
    Duration                    : 1 h 50 min
    Bit rate                    : 4 b/s
    Count of elements           : 107
    Stream size                 : 3.85 KiB (0%)
    Title                       : Sub_Forzados
    Language                    : Spanish
    Default                     : No
    Forced                      : No

    Text #5
    ID                          : 8
    Format                      : UTF-8
    Codec ID                    : S_TEXT/UTF8
    Codec ID/Info               : UTF-8 Plain Text
    Duration                    : 1 h 50 min
    Bit rate                    : 57 b/s
    Count of elements           : 1663
    Stream size                 : 46.6 KiB (0%)
    Title                       : Sub_Esp
    Language                    : Spanish
    Default                     : No
    Forced                      : No

    Menu
    00:00:00.000                : en:Chapter 1
    00:04:29.519                : en:Chapter 2
    00:08:12.534                : en:Chapter 3
    00:15:41.440                : en:Chapter 4
    00:22:07.368                : en:Chapter 5
    00:24:59.915                : en:Chapter 6
    00:30:03.635                : en:Chapter 7
    00:35:26.416                : en:Chapter 8
    00:40:45.401                : en:Chapter 9
    00:45:39.362                : en:Chapter 10
    00:49:40.978                : en:Chapter 11
    00:55:18.357                : en:Chapter 12
    00:59:48.627                : en:Chapter 13
    01:04:34.746                : en:Chapter 14
    01:08:44.287                : en:Chapter 15
    01:12:40.106                : en:Chapter 16
    01:18:37.046                : en:Chapter 17
    01:26:36.316                : en:Chapter 18
    01:31:12.926                : en:Chapter 19
    01:37:36.934                : en:Chapter 20
    01:41:48.644                : en:Chapter 21
    01:45:39.291                : en:Chapter 22
    01:48:00.849                : en:Chapter 23
    01:51:55.918                : en:Chapter 24

  • Peso: 26.3 GiB

Sinopsis

Descargar Un amor inquebrantable (2019) REMUX 1080p Latino. Joyce Smith y su familia creían que lo habían perdido todo cuando su hijo adolescente John cayó en el helado lago Saint-Louis. En el hospital, John estuvo sin vida durante 60 minutos, pero Joyce no estaba dispuesta a renunciar por su hijo. Reunió toda su fuerza y fe, y clamó a Dios por su salvación. Milagrosamente, el corazón de John volvió a latir. A partir de ahí, Joyce comienza a desafiar a cualquier experto y prueba científica que tratan de explicar lo que ocurrió.

Ficha técnica

  • Titulo original: Breakthrough
  • Fecha de lanzamiento: 11-04-2019 (United States of America)
  • Director: Roxann Dawson
  • Género: Drama, Remux
  • Puntuación: 0.0 0 votos
  • Duración:
    1h 56m

Video trailer de la película

Enlaces de descarga

Rip de Bluray

Descargar Un amor inquebrantable (2019) REMUX 1080p Latino




Aportes de DPeliculasHDmega la pass es:dpeliculashdmega.org Aportes de CinemaniaHD la pass es:cinemaniahdd.com
Guardado en : Drama , Remux

Películas relacionadas

Un amor inquebrantable (2019) REMUX 1080p Latino pelicula full hd, Un amor inquebrantable (2019) REMUX 1080p Latino mega latino, Un amor inquebrantable (2019) REMUX 1080p Latino 4k latino, Un amor inquebrantable (2019) REMUX 1080p Latino pelicula completa, Un amor inquebrantable (2019) REMUX 1080p Latino descargar gratis, descargar Un amor inquebrantable (2019) REMUX 1080p Latino pelicula latino, Un amor inquebrantable (2019) REMUX 1080p Latino 1 link mega, Un amor inquebrantable (2019) REMUX 1080p Latino 1 link google drive, Un amor inquebrantable (2019) REMUX 1080p Latino hd 1080p latino.
Comentarios 0