Un amor inquebrantable (2019) Full HD 1080p Latino

1.543 vistas
1 estrella2 estrellas3 estrellas4 estrellas5 estrellas (2 votos, promedio: 5,00 de 5)
Cargando...

Información de Un amor inquebrantable (2019) Full HD 1080p Latino

Datos de la película

  • Calidad: Full 1080p
  • Audio: Español Latino AC3 5.1 BLURAY - Ingles DTS 5.1 BLURAY
  • Subtitulos: Español Latino PGS - Ingles PGS
  • Resolución: 1920x1080p
  • Formato: MKV
  • Codec: H.264
  • Encoder: CinefiloCool
  • Mediainfo: Clic para Mostrar Datos Ver
  • Un amor inquebrantable (2019) Full HD 1080p Latino-CMHDD.mkv
    Format                      : Matroska
    Format version              : Version 4
    File size                   : 3.85 GiB
    Duration                    : 1 h 56 min
    Overall bit rate            : 4 739 kb/s
    Movie name                  : Breakthrough (2019) CinemaniaHDD.Net
    Encoded date                : UTC 2019-07-24 05:41:13
    Writing application         : mkvmerge v35.0.0 ('All The Love In The World') 64-bit
    Writing library             : libebml v1.3.9 + libmatroska v1.5.2
    Attachments                 : CINEMANIAHD.png

    Video
    ID                          : 1
    Format                      : AVC
    Format/Info                 : Advanced Video Codec
    Format profile              : High@L4.1
    Format settings             : CABAC / 4 Ref Frames
    Format settings, CABAC      : Yes
    Format settings, ReFrames   : 4 frames
    Codec ID                    : V_MPEG4/ISO/AVC
    Duration                    : 1 h 56 min
    Bit rate                    : 2 716 kb/s
    Width                       : 1 920 pixels
    Height                      : 1 080 pixels
    Display aspect ratio        : 16:9
    Frame rate mode             : Constant
    Frame rate                  : 23.976 (24000/1001) FPS
    Color space                 : YUV
    Chroma subsampling          : 4:2:0
    Bit depth                   : 8 bits
    Scan type                   : Progressive
    Bits/(Pixel*Frame)          : 0.055
    Stream size                 : 2.21 GiB (57%)
    Title                       : Full HD1080p [Bluray]
    Writing library             : x264 core 157 r2935 545de2f
    Encoding settings           : cabac=1 / ref=4 / deblock=1:0:0 / analyse=0x3:0x133 / me=tesa / subme=11 / psy=1 / psy_rd=1.00:0.00 / mixed_ref=1 / me_range=24 / chroma_me=1 / trellis=2 / 8x8dct=1 / cqm=0 / deadzone=21,11 / fast_pskip=0 / chroma_qp_offset=-2 / threads=34 / lookahead_threads=8 / sliced_threads=0 / nr=0 / decimate=1 / interlaced=0 / bluray_compat=0 / constrained_intra=0 / bframes=16 / b_pyramid=2 / b_adapt=2 / b_bias=0 / direct=3 / weightb=1 / open_gop=0 / weightp=2 / keyint=240 / keyint_min=24 / scenecut=40 / intra_refresh=0 / rc_lookahead=60 / rc=crf / mbtree=1 / crf=20.0 / qcomp=0.60 / qpmin=0 / qpmax=69 / qpstep=4 / vbv_maxrate=62500 / vbv_bufsize=78125 / crf_max=0.0 / nal_hrd=none / filler=0 / ip_ratio=1.40 / aq=1:1.00
    Default                     : Yes
    Forced                      : No
    Color range                 : Limited
    Color primaries             : BT.709
    Transfer characteristics    : BT.709
    Matrix coefficients         : BT.709

    Audio #1
    ID                          : 2
    Format                      : AC-3
    Format/Info                 : Audio Coding 3
    Commercial name             : Dolby Digital
    Codec ID                    : A_AC3
    Duration                    : 1 h 56 min
    Bit rate mode               : Constant
    Bit rate                    : 448 kb/s
    Channel(s)                  : 6 channels
    Channel layout              : L R C LFE Ls Rs
    Sampling rate               : 48.0 kHz
    Frame rate                  : 31.250 FPS (1536 SPF)
    Bit depth                   : 16 bits
    Compression mode            : Lossy
    Stream size                 : 373 MiB (9%)
    Title                       : AC3_5.1_Bluray_Esp
    Language                    : Spanish
    Service kind                : Complete Main
    Default                     : Yes
    Forced                      : Yes

    Audio #2
    ID                          : 3
    Format                      : DTS
    Format/Info                 : Digital Theater Systems
    Codec ID                    : A_DTS
    Duration                    : 1 h 56 min
    Bit rate mode               : Constant
    Bit rate                    : 1 509 kb/s
    Channel(s)                  : 6 channels
    Channel layout              : C L R Ls Rs LFE
    Sampling rate               : 48.0 kHz
    Frame rate                  : 93.750 FPS (512 SPF)
    Bit depth                   : 24 bits
    Compression mode            : Lossy
    Stream size                 : 1.23 GiB (32%)
    Title                       : DTS_5.1_Bluray_Eng
    Language                    : English
    Default                     : No
    Forced                      : No

    Text #1
    ID                          : 4
    Format                      : PGS
    Muxing mode                 : zlib
    Codec ID                    : S_HDMV/PGS
    Codec ID/Info               : Picture based subtitle format used on BDs/HD-DVDs
    Duration                    : 1 h 55 min
    Bit rate                    : 4 292 b/s
    Count of elements           : 218
    Stream size                 : 3.54 MiB (0%)
    Title                       : Sub_Forzados [PGS]
    Language                    : Spanish
    Default                     : Yes
    Forced                      : Yes

    Text #2
    ID                          : 5
    Format                      : PGS
    Muxing mode                 : zlib
    Codec ID                    : S_HDMV/PGS
    Codec ID/Info               : Picture based subtitle format used on BDs/HD-DVDs
    Duration                    : 1 h 55 min
    Bit rate                    : 58.2 kb/s
    Count of elements           : 3334
    Stream size                 : 48.0 MiB (1%)
    Title                       : Sub_Esp [PGS]
    Language                    : Spanish
    Default                     : No
    Forced                      : No

    Text #3
    ID                          : 6
    Format                      : PGS
    Muxing mode                 : zlib
    Codec ID                    : S_HDMV/PGS
    Codec ID/Info               : Picture based subtitle format used on BDs/HD-DVDs
    Duration                    : 1 h 54 min
    Bit rate                    : 74.3 kb/s
    Count of elements           : 4138
    Stream size                 : 60.9 MiB (2%)
    Title                       : Sub_Eng [PGS]
    Language                    : English
    Default                     : No
    Forced                      : No

    Text #4
    ID                          : 7
    Format                      : UTF-8
    Codec ID                    : S_TEXT/UTF8
    Codec ID/Info               : UTF-8 Plain Text
    Duration                    : 1 h 50 min
    Bit rate                    : 4 b/s
    Count of elements           : 107
    Stream size                 : 3.85 KiB (0%)
    Title                       : Sub_Forzados
    Language                    : Spanish
    Default                     : No
    Forced                      : No

    Text #5
    ID                          : 8
    Format                      : UTF-8
    Codec ID                    : S_TEXT/UTF8
    Codec ID/Info               : UTF-8 Plain Text
    Duration                    : 1 h 50 min
    Bit rate                    : 57 b/s
    Count of elements           : 1663
    Stream size                 : 46.6 KiB (0%)
    Title                       : Sub_Esp
    Language                    : Spanish
    Default                     : No
    Forced                      : No

    Menu
    00:00:00.000                : :Chapter 1
    00:04:29.519                : :Chapter 2
    00:08:12.534                : :Chapter 3
    00:15:41.441                : :Chapter 4
    00:22:07.368                : :Chapter 5
    00:24:59.915                : :Chapter 6
    00:30:03.635                : :Chapter 7
    00:35:26.416                : :Chapter 8
    00:40:45.401                : :Chapter 9
    00:45:39.362                : :Chapter 10
    00:49:40.978                : :Chapter 11
    00:55:18.357                : :Chapter 12
    00:59:48.627                : :Chapter 13
    01:04:34.746                : :Chapter 14
    01:08:44.287                : :Chapter 15
    01:12:40.106                : :Chapter 16
    01:18:37.046                : :Chapter 17
    01:26:36.316                : :Chapter 18
    01:31:12.926                : :Chapter 19
    01:37:36.934                : :Chapter 20
    01:41:48.644                : :Chapter 21
    01:45:39.291                : :Chapter 22
    01:48:00.849                : :Chapter 23
    01:51:56.001                : :Chapter 24

  • Peso: 3.85 GiB

Sinopsis

Descargar Un amor inquebrantable (2019) Full HD 1080p Latino, Mega, Google Drive. Joyce Smith y su familia creían que lo habían perdido todo cuando su hijo adolescente John cayó en el helado lago Saint-Louis. En el hospital, John estuvo sin vida durante 60 minutos, pero Joyce no estaba dispuesta a renunciar por su hijo. Reunió toda su fuerza y fe, y clamó a Dios por su salvación. Milagrosamente, el corazón de John volvió a latir. A partir de ahí, Joyce comienza a desafiar a cualquier experto y prueba científica que tratan de explicar lo que ocurrió.

Ficha técnica

Video trailer de la película

Enlaces de descarga

Rip de Bluray

Descargar Un amor inquebrantable (2019) Full HD 1080p Latino




Aportes de DPeliculasHDmega la pass es:dpeliculashdmega.org Aportes de CinemaniaHD la pass es:cinemaniahdd.com

Películas relacionadas

Un amor inquebrantable (2019) Full HD 1080p Latino pelicula full hd, Un amor inquebrantable (2019) Full HD 1080p Latino mega latino, Un amor inquebrantable (2019) Full HD 1080p Latino 4k latino, Un amor inquebrantable (2019) Full HD 1080p Latino pelicula completa, Un amor inquebrantable (2019) Full HD 1080p Latino descargar gratis, descargar Un amor inquebrantable (2019) Full HD 1080p Latino pelicula latino, Un amor inquebrantable (2019) Full HD 1080p Latino 1 link mega, Un amor inquebrantable (2019) Full HD 1080p Latino 1 link google drive, Un amor inquebrantable (2019) Full HD 1080p Latino hd 1080p latino.
Comentarios 0