Breaking In (2018) 1080p Latino

1.505 vistas
1 estrella2 estrellas3 estrellas4 estrellas5 estrellas (2 votos, promedio: 3,00 de 5)
Cargando…

Información de Breaking In (2018) 1080p Latino

Datos de la película

  • Calidad: 1080p
  • Audio: Español Latino AC3 5.1 BLURAY - Ingles AC3 5.1 BLURAY
  • Subtitulos: Español Latino SRT- FORZADOS SRT
  • Resolución: 1920x804p
  • Formato: MKV
  • Codec: H.264
  • Encoder: Dracarys
  • Mediainfo: Clic para Mostrar Datos Ver
  • Format                                   : Matroska
    Format version                           : Version 4 / Version 2
    File size                                : 2.92 GiB
    Duration                                 : 1 h 28 min
    Overall bit rate                         : 4 733 kb/s
    Movie name                               : CinemaniaHDD.net
    Encoded date                             : UTC 2018-07-26 06:49:26 / UTC 2018-07-26T03:55:27Z
    Writing application                      : mkvmerge v15.0.0 ('Duel with the Devil') 64-bit
    Writing library                          : libebml v1.3.5 + libmatroska v1.4.5 / Lavf57.7.2

    Video
    ID                                       : 1
    Format                                   : AVC
    Format/Info                              : Advanced Video Codec
    Format profile                           : High@L4.1
    Format settings                          : CABAC / 5 Ref Frames
    Format settings, CABAC                   : Yes
    Format settings, RefFrames               : 5 frames
    Codec ID                                 : V_MPEG4/ISO/AVC
    Duration                                 : 1 h 28 min
    Bit rate                                 : 3 500 kb/s
    Width                                    : 1 920 pixels
    Height                                   : 804 pixels
    Display aspect ratio                     : 2.40:1
    Frame rate mode                          : Constant
    Frame rate                               : 23.976 (24000/1001) FPS
    Color space                              : YUV
    Chroma subsampling                       : 4:2:0
    Bit depth                                : 8 bits
    Scan type                                : Progressive
    Bits/(Pixel*Frame)                       : 0.095
    Stream size                              : 2.07 GiB (71%)
    Title                                    : Breaking In (2018) 1080p Latino
    Writing library                          : x264 core 148 r2708 86b7198
    Encoding settings                        : cabac=1 / ref=5 / deblock=1:0:0 / analyse=0x3:0x113 / me=umh / subme=8 / psy=1 / psy_rd=1.00:0.00 / mixed_ref=1 / me_range=16 / chroma_me=1 / trellis=1 / 8x8dct=1 / cqm=0 / deadzone=21,11 / fast_pskip=1 / chroma_qp_offset=-2 / threads=25 / lookahead_threads=4 / sliced_threads=0 / nr=0 / decimate=1 / interlaced=0 / bluray_compat=0 / constrained_intra=0 / bframes=3 / b_pyramid=2 / b_adapt=2 / b_bias=0 / direct=3 / weightb=1 / open_gop=0 / weightp=2 / keyint=240 / keyint_min=24 / scenecut=40 / intra_refresh=0 / rc_lookahead=50 / rc=abr / mbtree=1 / bitrate=3500 / ratetol=1.0 / qcomp=0.60 / qpmin=0 / qpmax=69 / qpstep=4 / vbv_maxrate=62500 / vbv_bufsize=78125 / nal_hrd=none / filler=0 / ip_ratio=1.40 / aq=1:1.00
    Language                                 : English
    Default                                  : Yes
    Forced                                   : No
    Color range                              : Limited
    Color primaries                          : BT.709
    Transfer characteristics                 : BT.709
    Matrix coefficients                      : BT.709
    Statistics Tags Issue                    : mkvmerge v15.0.0 ('Duel with the Devil') 64-bit 2018-07-26 06:49:26 / mkvmerge v15.0.0 ('Duel with the Devil') 64-bit 2018-07-26 06:49:26 / UTC 2018-07-26T03:55:27Z
    FromStats_BitRate                        : 3450457
    FromStats_Duration                       : 01:28:24.800000000
    FromStats_FrameCount                     : 127188
    FromStats_StreamSize                     : 2287998560

    Audio #1
    ID                                       : 2
    Format                                   : AC-3
    Format/Info                              : Audio Coding 3
    Format settings, Endianness              : Big
    Codec ID                                 : A_AC3
    Duration                                 : 1 h 28 min
    Bit rate mode                            : Constant
    Bit rate                                 : 640 kb/s
    Channel(s)                               : 6 channels
    Channel positions                        : Front: L C R, Side: L R, LFE
    Sampling rate                            : 48.0 kHz
    Frame rate                               : 31.250 FPS (1536 SPF)
    Bit depth                                : 16 bits
    Compression mode                         : Lossy
    Delay relative to video                  : -5 ms
    Stream size                              : 405 MiB (14%)
    Language                                 : Spanish
    Service kind                             : Complete Main
    Default                                  : Yes
    Forced                                   : No
    Statistics Tags Issue                    : mkvmerge v15.0.0 ('Duel with the Devil') 64-bit 2018-07-26 06:49:26 / mkvmerge v15.0.0 ('Duel with the Devil') 64-bit 2018-07-26 06:49:26 / UTC 2018-07-26T03:55:27Z
    FromStats_BitRate                        : 640000
    FromStats_Duration                       : 01:28:24.864000000
    FromStats_FrameCount                     : 165777
    FromStats_StreamSize                     : 424389120

    Audio #2
    ID                                       : 3
    Format                                   : AC-3
    Format/Info                              : Audio Coding 3
    Format settings, Endianness              : Big
    Codec ID                                 : A_AC3
    Duration                                 : 1 h 28 min
    Bit rate mode                            : Constant
    Bit rate                                 : 640 kb/s
    Channel(s)                               : 6 channels
    Channel positions                        : Front: L C R, Side: L R, LFE
    Sampling rate                            : 48.0 kHz
    Frame rate                               : 31.250 FPS (1536 SPF)
    Bit depth                                : 16 bits
    Compression mode                         : Lossy
    Delay relative to video                  : -5 ms
    Stream size                              : 405 MiB (14%)
    Language                                 : English
    Service kind                             : Complete Main
    Default                                  : No
    Forced                                   : No
    Statistics Tags Issue                    : mkvmerge v15.0.0 ('Duel with the Devil') 64-bit 2018-07-26 06:49:26 / mkvmerge v15.0.0 ('Duel with the Devil') 64-bit 2018-07-26 06:49:26 / UTC 2018-07-26T03:55:27Z
    FromStats_BitRate                        : 640000
    FromStats_Duration                       : 01:28:24.832000000
    FromStats_FrameCount                     : 165776
    FromStats_StreamSize                     : 424386560

    Text #1
    ID                                       : 4
    Format                                   : UTF-8
    Codec ID                                 : S_TEXT/UTF8
    Codec ID/Info                            : UTF-8 Plain Text
    Language                                 : Spanish
    Default                                  : No
    Forced                                   : No
    Statistics Tags Issue                    : mkvmerge v15.0.0 ('Duel with the Devil') 64-bit 2018-07-26 06:49:26 / mkvmerge v15.0.0 ('Duel with the Devil') 64-bit 2018-07-26 06:49:26 / UTC 2018-07-26T03:55:27Z
    FromStats_BitRate                        : 33
    FromStats_Duration                       : 01:24:27.067000000
    FromStats_FrameCount                     : 819
    FromStats_StreamSize                     : 21296

    Text #2
    ID                                       : 5
    Format                                   : UTF-8
    Codec ID                                 : S_TEXT/UTF8
    Codec ID/Info                            : UTF-8 Plain Text
    Title                                    : Forzados
    Language                                 : Spanish
    Default                                  : Yes
    Forced                                   : No
    Statistics Tags Issue                    : mkvmerge v15.0.0 ('Duel with the Devil') 64-bit 2018-07-26 06:49:26 / mkvmerge v15.0.0 ('Duel with the Devil') 64-bit 2018-07-26 06:49:26 / UTC 2018-07-26T03:55:27Z
    FromStats_BitRate                        : 0
    FromStats_Duration                       : 01:11:10.980000000
    FromStats_FrameCount                     : 8
    FromStats_StreamSize                     : 228

    Menu
    00:00:00.000                             : :00:00:00.000
    00:05:16.191                             : :00:05:16.191
    00:10:03.686                             : :00:10:03.686
    00:14:04.552                             : :00:14:04.552
    00:17:30.049                             : :00:17:30.049
    00:21:46.263                             : :00:21:46.263
    00:25:35.409                             : :00:25:35.409
    00:31:09.576                             : :00:31:09.576
    00:37:02.137                             : :00:37:02.137
    00:41:01.125                             : :00:41:01.125
    00:44:33.796                             : :00:44:33.796
    00:50:41.163                             : :00:50:41.163
    00:54:37.608                             : :00:54:37.608
    01:00:32.754                             : :01:00:32.754
    01:04:42.921                             : :01:04:42.921
    01:10:13.167                             : :01:10:13.167
    01:13:30.656                             : :01:13:30.573
    01:16:38.552                             : :01:16:38.552
    01:21:17.623                             : :01:21:17.623
    01:25:52.189                             : :01:25:52.147

  • Peso: 2.92 GiB

Sinopsis

Shaun (Gabrielle Union) es una madre de dos hijos que acaba de perder a su padre. Como legado, hereda una casa en Malibu, por lo que decide mudarse allí junto a los pequeños. En la mansión hay cuatro inquilinos no deseados que tratan de hacerse con la caja de caudales del padre de Shaun y escapar con todo lo que lleva dentro. Los atracadores secuestran a los niños y dejan a la madre fuera de la casa, que resulta ser una fortaleza, pero no se quedará de brazos cruzados. A partir de aquí, comienza la pesadilla de la familia, o de los secuestradores…

Ficha técnica

Video trailer de la película

Enlaces de descarga

Rip de Bluray

Descargar Breaking In (2018) 1080p Latino




Aportes de DPeliculasHDmega la pass es:dpeliculashdmega.org Aportes de CinemaniaHD la pass es:cinemaniahdd.com
Guardado en : Acción , Crimen , Suspense

Películas relacionadas

  • Cam (2018) NF 1080p Latino

    2018
    Cam (2018) NF 1080p Latino

    0.0 1h 34m 2018

    Alice es una camgirl con un código inamovible, que le permite mantener una cierta distancia con los...

    Director: Rachel Penner

    Género: Suspense

    Actores: Samantha Robinson

  • El Justiciero 2 (2018) Full 1080p Latino

    2018
    El Justiciero 2 (2018) Full 1080p Latino

    5.0 2h 0m 2018

    Descargar El Justiciero 2 (2018) Full 1080p Latino, Mega, Google Drive. Robert McCall (Denzel Washington)...

    Director: Donald Sparks

    Género: Acción

    Actores: Wesley Pereira

Comentarios 0