The Twilight Saga: Breaking Dawn Part 2 (2012) OPEN MATTE REMUX 1080p Latino

32 vistas
1 estrella2 estrellas3 estrellas4 estrellas5 estrellas (Ninguna valoración todavía)
Cargando...

Información de The Twilight Saga: Breaking Dawn Part 2 (2012) OPEN MATTE REMUX 1080p Latino

Datos de la película

  • Calidad: Full 1080p
  • Audio: Español Latino AC3 5.1 BLURAY - Ingles DTS 5.1 BLURAY
  • Subtitulos: Español Latino PGS - Ingles PGS
  • Resolución: 1920x1080p
  • Formato: MKV
  • Codec: H.264
  • Encoder: CinefiloCool
  • Mediainfo: Clic para Mostrar Datos Ver
  • Crepusculo Amanecer Parte 2 (2012) OPEN MATTE REMUX 1080p Latino-CMHDD.mkv
    Format                      : Matroska
    Format version              : Version 4
    File size                   : 23.1 GiB
    Duration                    : 1 h 55 min
    Overall bit rate mode       : Variable
    Overall bit rate            : 28.7 Mb/s
    Movie name                  : The Twilight Saga - Breaking Dawn - Part 2 (2012) CinemaniaHDD.Net
    Encoded date                : UTC 2021-09-17 06:43:40
    Writing application         : mkvmerge v56.1.0 ('My Friend') 64-bit
    Writing library             : libebml v1.4.2 + libmatroska v1.6.4
    Attachments                 : CINEMANIAHD.png

    Video
    ID                          : 1
    ID in the original source m : 4113 (0x1011)
    Format                      : AVC
    Format/Info                 : Advanced Video Codec
    Format profile              : High@L4.1
    Format settings             : CABAC / 4 Ref Frames
    Format settings, CABAC      : Yes
    Format settings, Reference  : 4 frames
    Codec ID                    : V_MPEG4/ISO/AVC
    Duration                    : 1 h 55 min
    Bit rate mode               : Variable
    Bit rate                    : 26.0 Mb/s
    Maximum bit rate            : 35.0 Mb/s
    Width                       : 1 920 pixels
    Height                      : 1 080 pixels
    Display aspect ratio        : 16:9
    Frame rate mode             : Constant
    Frame rate                  : 23.976 (24000/1001) FPS
    Standard                    : NTSC
    Color space                 : YUV
    Chroma subsampling          : 4:2:0
    Bit depth                   : 8 bits
    Scan type                   : Progressive
    Bits/(Pixel*Frame)          : 0.523
    Stream size                 : 20.9 GiB (91%)
    Title                       : REMUX HD1080p [CinemaniaHDD]
    Default                     : Yes
    Forced                      : Yes
    Color range                 : Limited
    Color primaries             : BT.709
    Transfer characteristics    : BT.709
    Matrix coefficients         : BT.709
    Original source medium      : Blu-ray

    Audio #1
    ID                          : 2
    Format                      : AC-3
    Format/Info                 : Audio Coding 3
    Commercial name             : Dolby Digital
    Codec ID                    : A_AC3
    Duration                    : 1 h 55 min
    Bit rate mode               : Constant
    Bit rate                    : 448 kb/s
    Channel(s)                  : 6 channels
    Channel layout              : L R C LFE Ls Rs
    Sampling rate               : 48.0 kHz
    Frame rate                  : 31.250 FPS (1536 SPF)
    Compression mode            : Lossy
    Delay relative to video     : 12 ms
    Stream size                 : 369 MiB (2%)
    Title                       : Español Latino [CinemaniaHDD]
    Language                    : Spanish
    Service kind                : Complete Main
    Default                     : Yes
    Forced                      : Yes

    Audio #2
    ID                          : 3
    ID in the original source m : 4353 (0x1101)
    Format                      : DTS XLL
    Format/Info                 : Digital Theater Systems
    Commercial name             : DTS-HD Master Audio
    Codec ID                    : A_DTS
    Duration                    : 1 h 55 min
    Bit rate mode               : Variable
    Bit rate                    : 2 192 kb/s
    Channel(s)                  : 6 channels
    Channel layout              : C L R Ls Rs LFE
    Sampling rate               : 48.0 kHz
    Frame rate                  : 93.750 FPS (512 SPF)
    Bit depth                   : 16 bits
    Compression mode            : Lossless
    Stream size                 : 1.76 GiB (8%)
    Title                       : Ingles [CinemaniaHDD]
    Language                    : English
    Default                     : No
    Forced                      : No
    Original source medium      : Blu-ray

    Text #1
    ID                          : 4
    Format                      : PGS
    Muxing mode                 : zlib
    Codec ID                    : S_HDMV/PGS
    Codec ID/Info               : Picture based subtitle format used on BDs/HD-DVDs
    Duration                    : 1 h 45 min
    Bit rate                    : 16.6 kb/s
    Count of elements           : 1922
    Stream size                 : 12.6 MiB (0%)
    Title                       : Español-PGS [CinemaniaHDD]
    Language                    : Spanish
    Default                     : No
    Forced                      : No

    Text #2
    ID                          : 5
    Format                      : PGS
    Muxing mode                 : zlib
    Codec ID                    : S_HDMV/PGS
    Codec ID/Info               : Picture based subtitle format used on BDs/HD-DVDs
    Duration                    : 1 h 38 min
    Bit rate                    : 18.1 kb/s
    Count of elements           : 1768
    Stream size                 : 12.7 MiB (0%)
    Title                       : Ingles-PGS [CinemaniaHDD]
    Language                    : English
    Default                     : No
    Forced                      : No

    Text #3
    ID                          : 6
    Format                      : UTF-8
    Codec ID                    : S_TEXT/UTF8
    Codec ID/Info               : UTF-8 Plain Text
    Duration                    : 1 h 45 min
    Bit rate                    : 0 b/s
    Count of elements           : 6
    Stream size                 : 185 Bytes (0%)
    Title                       : Forzados-SRT [CinemaniaHDD]
    Language                    : Spanish
    Default                     : Yes
    Forced                      : Yes

    Text #4
    ID                          : 7
    Format                      : UTF-8
    Codec ID                    : S_TEXT/UTF8
    Codec ID/Info               : UTF-8 Plain Text
    Duration                    : 1 h 45 min
    Bit rate                    : 33 b/s
    Count of elements           : 970
    Stream size                 : 25.8 KiB (0%)
    Title                       : Español-SRT [CinemaniaHDD]
    Language                    : Spanish
    Default                     : No
    Forced                      : No

    Menu
    00:00:00.000                : Chapter 01
    00:08:03.357                : Chapter 02
    00:13:47.493                : Chapter 03
    00:18:35.364                : Chapter 04
    00:22:48.909                : Chapter 05
    00:30:02.634                : Chapter 06
    00:38:05.449                : Chapter 07
    00:43:34.945                : Chapter 08
    00:48:35.120                : Chapter 09
    00:52:28.353                : Chapter 10
    00:58:12.864                : Chapter 11
    01:02:09.642                : Chapter 12
    01:08:25.351                : Chapter 13
    01:11:40.879                : Chapter 14
    01:20:34.746                : Chapter 15
    01:24:56.800                : Chapter 16
    01:32:17.156                : Chapter 17
    01:38:09.216                : Chapter 18

  • Peso: 23.1 GiB

Sinopsis

Descargar The Twilight Saga: Breaking Dawn Part 2 (2012) OPEN MATTE REMUX 1080p Latino. Bella concluye su transformación en vampiro y ahora debe familiarizarse con su nueva condición. Con el nacimiento de Renesmee, la familia Cullen deberá protegerse ante la amenaza de los Volturi ya que existe una ley para los vampiros que prohíbe a todos los clanes convertir a niños, pues son difíciles de controlar y pueden generar auténticas masacres que pongan en peligro la secreta existencia de los vampiros… Segunda parte de la adaptación de «Amanecer» que supone la quinta entrega de la franquicia cinematográfica Crepúsculo, basada en las novelas de Stephenie Meyer.

Disponible Solo Para VIP!!! 😀

Ficha técnica

Video trailer de la película

Enlaces de descarga

Rip de Bluray

Descargar The Twilight Saga: Breaking Dawn Part 2 (2012) OPEN MATTE REMUX 1080p Latino


Aportes de DPeliculasHDmega la pass es:dpeliculashdmega.org Aportes de CinemaniaHD la pass es:cinemaniahdd.com
Guardado en : Aventura , Drama , Fantasía , OPEN MATTE , Remux , Romance

Películas relacionadas

  • Stargirl (2021) Temporada 2 WEB-DL 1080p Latino

    Stargirl (2021) Temporada 2 WEB-DL 1080p Latino

    2020
    Stargirl (2021) Temporada 2 WEB-DL 1080p Latino

    3.7 0h 43m 2020

    Courtney Withmore es una estudiante de instituto que ayuda a un grupo de jóvenes héroes a acabar con...

    Director: Geoff Johns

    Género: Action & Adventure

    Actores: Yvette Monreal

  • Dune (2021) HMAX 4K-HDR WEB-DL 2160p Latino

    Dune (2021) HMAX 4K-HDR WEB-DL 2160p Latino

    2021
    Dune (2021) HMAX 4K-HDR WEB-DL 2160p Latino

    5.0 2h 35m 2021

    El hijo de una familia noble trata de vengarse de la muerte de su padre al mismo tiempo que salva un...

    Director: Tom Struthers

    Género: Acción

    Actores: Zendaya

  • Dune (2021) HMAX WEB-DL 1080p Latino

    Dune (2021) HMAX WEB-DL 1080p Latino

    2021
    Dune (2021) HMAX WEB-DL 1080p Latino

    5.0 2h 35m 2021

    El hijo de una familia noble trata de vengarse de la muerte de su padre al mismo tiempo que salva un...

    Director: Tom Struthers

    Género: Acción

    Actores: Zendaya

  • Playhouse (2020) REMUX 1080p Latino

    Playhouse (2020) REMUX 1080p Latino

    2020
    Playhouse (2020) REMUX 1080p Latino

    0.0 1h 27m 2020

    Descargar Playhouse (2020) REMUX 1080p Latino. El temerario Jack Travis (William Holstead) es un irreverente...

    Director: Toby Watts

    Género: Remux

    Actores: William Holstead

The Twilight Saga: Breaking Dawn Part 2 (2012) OPEN MATTE REMUX 1080p Latino pelicula full hd, The Twilight Saga: Breaking Dawn Part 2 (2012) OPEN MATTE REMUX 1080p Latino mega latino, The Twilight Saga: Breaking Dawn Part 2 (2012) OPEN MATTE REMUX 1080p Latino 4k latino, The Twilight Saga: Breaking Dawn Part 2 (2012) OPEN MATTE REMUX 1080p Latino pelicula completa, The Twilight Saga: Breaking Dawn Part 2 (2012) OPEN MATTE REMUX 1080p Latino descargar gratis, descargar The Twilight Saga: Breaking Dawn Part 2 (2012) OPEN MATTE REMUX 1080p Latino pelicula latino, The Twilight Saga: Breaking Dawn Part 2 (2012) OPEN MATTE REMUX 1080p Latino 1 link mega, The Twilight Saga: Breaking Dawn Part 2 (2012) OPEN MATTE REMUX 1080p Latino 1 link google drive, The Twilight Saga: Breaking Dawn Part 2 (2012) OPEN MATTE REMUX 1080p Latino hd 1080p latino.
Comentarios 0