The Twilight Saga: Breaking Dawn Part 1 (2011) OPEN MATTE Web-DL 1080p Latino

38 vistas
1 estrella2 estrellas3 estrellas4 estrellas5 estrellas (Ninguna valoración todavía)
Cargando...

Información de The Twilight Saga: Breaking Dawn Part 1 (2011) OPEN MATTE Web-DL 1080p Latino

Datos de la película

  • Calidad: WEBDL
  • Audio: Español Latino AC3 5.1 WEB-DL - Ingles AC3 5.1 WEB-DL
  • Subtitulos: Español Latino SRT - Ingles SRT
  • Resolución: 1920x1080p
  • Formato: MKV
  • Codec: H.264
  • Encoder: CinefiloCool
  • Mediainfo: Clic para Mostrar Datos Ver
  • Crepusculo Amanecer Parte 1 (2011) OPEN MATTE Web 1080p Latino-CMHDD.mkv
    Format                      : Matroska
    Format version              : Version 4
    File size                   : 9.63 GiB
    Duration                    : 1 h 57 min
    Overall bit rate            : 11.8 Mb/s
    Movie name                  : The Twilight Saga - Breaking Dawn - Part 1 (2011) CinemaniaHDD.Net
    Encoded date                : UTC 2021-09-19 05:18:50
    Writing application         : mkvmerge v56.1.0 ('My Friend') 64-bit
    Writing library             : libebml v1.4.2 + libmatroska v1.6.4
    Attachments                 : CINEMANIAHD.png

    Video
    ID                          : 1
    Format                      : AVC
    Format/Info                 : Advanced Video Codec
    Format profile              : High@L4
    Format settings             : CABAC / 4 Ref Frames
    Format settings, CABAC      : Yes
    Format settings, Reference  : 4 frames
    Codec ID                    : V_MPEG4/ISO/AVC
    Duration                    : 1 h 57 min
    Bit rate                    : 10.5 Mb/s
    Width                       : 1 920 pixels
    Height                      : 1 080 pixels
    Display aspect ratio        : 16:9
    Frame rate mode             : Constant
    Frame rate                  : 23.976 (24000/1001) FPS
    Color space                 : YUV
    Chroma subsampling          : 4:2:0
    Bit depth                   : 8 bits
    Scan type                   : Progressive
    Bits/(Pixel*Frame)          : 0.211
    Stream size                 : 8.58 GiB (89%)
    Title                       : Web HD1080p [CinemaniaHDD]
    Language                    : English
    Default                     : Yes
    Forced                      : No
    Color range                 : Limited
    Color primaries             : BT.709
    Transfer characteristics    : BT.709
    Matrix coefficients         : BT.709

    Audio #1
    ID                          : 2
    Format                      : AC-3
    Format/Info                 : Audio Coding 3
    Commercial name             : Dolby Digital
    Codec ID                    : A_AC3
    Duration                    : 1 h 57 min
    Bit rate mode               : Constant
    Bit rate                    : 640 kb/s
    Channel(s)                  : 6 channels
    Channel layout              : L R C LFE Ls Rs
    Sampling rate               : 48.0 kHz
    Frame rate                  : 31.250 FPS (1536 SPF)
    Compression mode            : Lossy
    Stream size                 : 536 MiB (5%)
    Title                       : Español Latino [CinemaniaHDD]
    Language                    : Spanish
    Service kind                : Complete Main
    Default                     : Yes
    Forced                      : No

    Audio #2
    ID                          : 3
    Format                      : AC-3
    Format/Info                 : Audio Coding 3
    Commercial name             : Dolby Digital
    Codec ID                    : A_AC3
    Duration                    : 1 h 57 min
    Bit rate mode               : Constant
    Bit rate                    : 640 kb/s
    Channel(s)                  : 6 channels
    Channel layout              : L R C LFE Ls Rs
    Sampling rate               : 48.0 kHz
    Frame rate                  : 31.250 FPS (1536 SPF)
    Compression mode            : Lossy
    Stream size                 : 536 MiB (5%)
    Title                       : Ingles [CinemaniaHDD]
    Language                    : English
    Service kind                : Complete Main
    Default                     : No
    Forced                      : No

    Text #1
    ID                          : 4
    Format                      : UTF-8
    Codec ID                    : S_TEXT/UTF8
    Codec ID/Info               : UTF-8 Plain Text
    Duration                    : 45 min 49 s
    Bit rate                    : 0 b/s
    Count of elements           : 4
    Stream size                 : 121 Bytes (0%)
    Title                       : Forzados-SRT [CinemaniaHDD]
    Language                    : Spanish
    Default                     : Yes
    Forced                      : No

    Text #2
    ID                          : 5
    Format                      : UTF-8
    Codec ID                    : S_TEXT/UTF8
    Codec ID/Info               : UTF-8 Plain Text
    Duration                    : 1 h 48 min
    Bit rate                    : 32 b/s
    Count of elements           : 1021
    Stream size                 : 25.4 KiB (0%)
    Title                       : Español-SRT [CinemaniaHDD]
    Language                    : Spanish
    Default                     : No
    Forced                      : No

    Text #3
    ID                          : 6
    Format                      : UTF-8
    Codec ID                    : S_TEXT/UTF8
    Codec ID/Info               : UTF-8 Plain Text
    Duration                    : 1 h 56 min
    Bit rate                    : 36 b/s
    Count of elements           : 1176
    Stream size                 : 31.2 KiB (0%)
    Title                       : Ingles-SRT [CinemaniaHDD]
    Language                    : English
    Default                     : No
    Forced                      : No

    Menu
    00:00:00.000                : 00:00:00.000
    00:08:10.115                : 00:08:10.115
    00:11:23.683                : 00:11:23.683
    00:16:30.740                : 00:16:30.740
    00:21:03.762                : 00:21:03.762
    00:29:28.266                : 00:29:28.266
    00:34:43.290                : 00:34:43.290
    00:41:15.556                : 00:41:15.556
    00:47:42.485                : 00:47:42.485
    00:55:57.813                : 00:55:57.813
    01:04:21.441                : 01:04:21.441
    01:09:47.058                : 01:09:47.058
    01:13:47.381                : 01:13:47.381
    01:20:50.804                : 01:20:50.804
    01:28:22.964                : 01:28:22.964
    01:36:25.488                : 01:36:25.488
    01:41:44.098                : 01:41:44.098
    01:46:51.697                : 01:46:51.697

  • Peso: 9.63 GiB

Sinopsis

Descargar The Twilight Saga: Breaking Dawn Part 1 (2011) OPEN MATTE Web-DL 1080p Latino. El amor que Edward y Bella sienten el uno por el otro se sella con la celebración de una gran ceremonia organizada por Alice. Durante la luna de miel, los recién casados tienen relaciones sexuales y Bella queda embarazada. El rápido crecimiento del feto, mitad humano mitad vampiro, afecta gravemente a su salud, llevándola al borde de la muerte…

Ficha técnica

Video trailer de la película

Enlaces de descarga

Rip de Bluray

Descargar The Twilight Saga: Breaking Dawn Part 1 (2011) OPEN MATTE Web-DL 1080p Latino




Aportes de DPeliculasHDmega la pass es:dpeliculashdmega.org Aportes de CinemaniaHD la pass es:cinemaniahdd.com
Guardado en : Aventura , Fantasía , OPEN MATTE , Romance

Películas relacionadas

  • Dune (2021) HMAX 4K-HDR WEB-DL 2160p Latino

    Dune (2021) HMAX 4K-HDR WEB-DL 2160p Latino

    2021
    Dune (2021) HMAX 4K-HDR WEB-DL 2160p Latino

    5.0 2h 35m 2021

    El hijo de una familia noble trata de vengarse de la muerte de su padre al mismo tiempo que salva un...

    Director: Tom Struthers

    Género: Acción

    Actores: Zendaya

  • Dune (2021) HMAX WEB-DL 1080p Latino

    Dune (2021) HMAX WEB-DL 1080p Latino

    2021
    Dune (2021) HMAX WEB-DL 1080p Latino

    5.0 2h 35m 2021

    El hijo de una familia noble trata de vengarse de la muerte de su padre al mismo tiempo que salva un...

    Director: Tom Struthers

    Género: Acción

    Actores: Zendaya

  • Night Teeth (2021) NF WEB-DL 1080p Latino

    Night Teeth (2021) NF WEB-DL 1080p Latino

    2021
    Night Teeth (2021) NF WEB-DL 1080p Latino

    5.0 1h 47m 2021

    Un conductor recoge a dos mujeres que pasarán una noche de fiesta. Pero, al descubrir la verdadera naturaleza...

    Director: Adam Randall

    Género: Acción

    Actores: Tracy Brotherton

The Twilight Saga: Breaking Dawn Part 1 (2011) OPEN MATTE Web-DL 1080p Latino pelicula full hd, The Twilight Saga: Breaking Dawn Part 1 (2011) OPEN MATTE Web-DL 1080p Latino mega latino, The Twilight Saga: Breaking Dawn Part 1 (2011) OPEN MATTE Web-DL 1080p Latino 4k latino, The Twilight Saga: Breaking Dawn Part 1 (2011) OPEN MATTE Web-DL 1080p Latino pelicula completa, The Twilight Saga: Breaking Dawn Part 1 (2011) OPEN MATTE Web-DL 1080p Latino descargar gratis, descargar The Twilight Saga: Breaking Dawn Part 1 (2011) OPEN MATTE Web-DL 1080p Latino pelicula latino, The Twilight Saga: Breaking Dawn Part 1 (2011) OPEN MATTE Web-DL 1080p Latino 1 link mega, The Twilight Saga: Breaking Dawn Part 1 (2011) OPEN MATTE Web-DL 1080p Latino 1 link google drive, The Twilight Saga: Breaking Dawn Part 1 (2011) OPEN MATTE Web-DL 1080p Latino hd 1080p latino.
Comentarios 0