×

¿Problemas para descargar con Mozilla, EDGE? Deshabilita la opción "Abrir vinculos en una pestaña nueva" tal como lo muestra ésta imagen.

Breaking Bad (2011) Cuarta Temporada [NF] WEB-DL 4K HDR Latino – CMHDD

84 vistas

Información de Breaking Bad (2011) Cuarta Temporada [NF] WEB-DL 4K HDR Latino – CMHDD

Datos de la película

  • Calidad: 4K HDR
  • Audio: Español Latino E-AC3 5.1 Netflix - Ingles E-AC3 5.1 Netflix
  • Subtitulos: Español Latino SRT
  • Resolución: 3840x2160p
  • Formato: MKV
  • Codec: H.264
  • Encoder: Dracarys
  • Mediainfo: Clic para Mostrar Datos Ver
  • Format                      : Matroska
    Format version              : Version 4
    File size                   : 5.16 GiB
    Duration                    : 47 min 31 s
    Overall bit rate            : 15.5 Mb/s
    Encoded date                : UTC 2022-05-25 00:10:00
    Writing application         : mkvmerge v63.0.0 ('Everything') 64-bit
    Writing library             : libebml v1.4.2 + libmatroska v1.6.4

    Video
    ID                          : 1
    Format                      : HEVC
    Format/Info                 : High Efficiency Video Coding
    Format profile              : Main@L5@Main
    Codec ID                    : V_MPEGH/ISO/HEVC
    Duration                    : 47 min 12 s
    Bit rate                    : 14.4 Mb/s
    Width                       : 3 840 pixels
    Height                      : 2 160 pixels
    Display aspect ratio        : 16:9
    Frame rate mode             : Constant
    Frame rate                  : 23.976 (24000/1001) FPS
    Color space                 : YUV
    Chroma subsampling          : 4:2:0
    Bit depth                   : 8 bits
    Bits/(Pixel*Frame)          : 0.072
    Stream size                 : 4.73 GiB (92%)
    Writing library             : x265 0.0:[Linux][GCC 4.8.2][64 bit] 8bit+10bit+12bit
    Encoding settings           : cpuid=1173503 / frame-threads=1 / wpp / no-pmode / no-pme / psnr / ssim / log-level=2 / csvfn=/apollo/env/YoshiEncodingWorkflowActivitiesLinuxEncoding/var/tmp/1879277202/9b5b6e1e-2de1-4a0e-9fee-ba3e7f08d3ff/6cc2a526-3e91-407d-8531-e98b7dded95c_video_2160p_15000kbps.csv / csv-log-level=2 / input-csp=1 / input-res=3840x2160 / interlace=0 / total-frames=0 / level-idc=50 / high-tier=1 / uhd-bd=0 / ref=5 / no-allow-non-conformance / no-repeat-headers / annexb / no-aud / no-hrd / info / hash=0 / no-temporal-layers / no-open-gop / min-keyint=61 / keyint=120 / bframes=8 / b-adapt=2 / b-pyramid / bframe-bias=0 / rc-lookahead=120 / lookahead-slices=4 / scenecut=0 / no-intra-refresh / ctu=64 / min-cu-size=8 / rect / amp / max-tu-size=32 / tu-inter-depth=4 / tu-intra-depth=4 / limit-tu=4 / rdoq-level=2 / dynamic-rd=0.00 / no-ssim-rd / signhide / tskip / nr-intra=100 / nr-inter=600 / no-constrained-intra / strong-intra-smoothing / max-merge=3 / limit-refs=3 / limit-modes / me=3 / subme=3 / merange=57 / temporal-mvp / weightp / weightb / no-analyze-src-pics / deblock=0:0 / no-sao / no-sao-non-deblock / rd=4 / no-early-skip / no-rskip / no-fast-intra / tskip-fast / no-cu-lossless / b-intra / rdpenalty=0 / psy-rd=4.00 / psy-rdoq=10.00 / no-rd-refine / analysis-reuse-mode=0 / no-lossless / cbqpoffs=0 / crqpoffs=0 / rc=crf / crf=25.0 / qcomp=0.60 / qpstep=1 / stats-write=0 / stats-read=0 / vbv-maxrate=15000 / vbv-bufsize=20000 / vbv-init=0.9 / crf-max=0.0 / crf-min=0.0 / ipratio=1.10 / pbratio=1.00 / aq-mode=0 / aq-strength=1.50 / no-cutree / zone-count=0 / no-strict-cbr / qg-size=32 / rc-grain / qpmax=69 / qpmin=0 / const-vbv / sar=1 / overscan=0 / videoformat=5 / range=0 / colorprim=1 / transfer=1 / colormatrix=1 / chromaloc=0 / display-window=0 / max-cll=0,0 / min-luma=0 / max-luma=255 / log2-max-poc-lsb=8 / vui-timing-info / vui-hrd-info / slices=1 / opt-qp-pps / opt-ref-list-length-pps / no-multi-pass-opt-rps / scenecut-bias=0.05 / no-opt-cu-delta-qp / no-aq-motion / no-hdr / no-hdr-opt / no-dhdr10-opt / analysis-reuse-level=5 / scale-factor=0 / refine-intra=0 / refine-inter=0 / refine-mv=0 / no-limit-sao / ctu-info=0
    Language                    : English
    Default                     : Yes
    Forced                      : No
    Color range                 : Limited
    Color primaries             : BT.709
    Transfer characteristics    : BT.709
    Matrix coefficients         : BT.709

    Audio #1
    ID                          : 2
    Format                      : E-AC-3
    Format/Info                 : Enhanced AC-3
    Commercial name             : Dolby Digital Plus
    Codec ID                    : A_EAC3
    Duration                    : 47 min 31 s
    Bit rate mode               : Constant
    Bit rate                    : 640 kb/s
    Channel(s)                  : 6 channels
    Channel layout              : L R C LFE Ls Rs
    Sampling rate               : 48.0 kHz
    Frame rate                  : 31.250 FPS (1536 SPF)
    Bit depth                   : 32 bits
    Compression mode            : Lossy
    Stream size                 : 218 MiB (4%)
    Title                       : Latin American
    Language                    : Spanish
    Service kind                : Complete Main
    Default                     : Yes
    Forced                      : No

    Audio #2
    ID                          : 3
    Format                      : E-AC-3
    Format/Info                 : Enhanced AC-3
    Commercial name             : Dolby Digital Plus
    Codec ID                    : A_EAC3
    Duration                    : 47 min 12 s
    Bit rate mode               : Constant
    Bit rate                    : 640 kb/s
    Channel(s)                  : 6 channels
    Channel layout              : L R C LFE Ls Rs
    Sampling rate               : 48.0 kHz
    Frame rate                  : 31.250 FPS (1536 SPF)
    Compression mode            : Lossy
    Stream size                 : 216 MiB (4%)
    Title                       : English
    Language                    : English
    Service kind                : Complete Main
    Default                     : No
    Forced                      : No

    Text
    ID                          : 4
    Format                      : UTF-8
    Codec ID                    : S_TEXT/UTF8
    Codec ID/Info               : UTF-8 Plain Text
    Duration                    : 45 min 41 s
    Bit rate                    : 39 b/s
    Frame rate                  : 0.143 FPS
    Count of elements           : 391
    Stream size                 : 13.2 KiB (0%)
    Title                       : Latin American
    Language                    : Spanish
    Default                     : No
    Forced                      : No

     

  • Peso: 67 GiB

Sinopsis

El profesor calmado de química de una secundaria, Walter White cree que su vida no puede ser peor. Su salario apenas le alcanza para sostener a su familia, una situación que no mejora cuando su esposa da a luz y su hijo adolescente sufre de parálisis cerebral, pero Walter queda anonadado cuando se entera que tiene un cáncer terminal. Al concluir que su enfermedad iba a arruinar financieramente a su familia, él toma una decisión desesperada con el fin de ganar más dinero durante el tiempo que le queda y transforma un viejo vehículo de recreación en un laboratorio de matanfetaminas sobre ruedas.

Ficha técnica

Video trailer de la película

Enlaces de descarga

Rip de Bluray

Descargar Breaking Bad (2011) Cuarta Temporada [NF] WEB-DL 4K HDR Latino – CMHDD


Aportes de DPeliculasHDmega la pass es:dpeliculashdmega.org Aportes de CinemaniaHD la pass es:cinemaniahdd.com Aportes recientes:cinemaniahdd.net
Guardado en : Crimen , Drama

Películas relacionadas

descargar Breaking Bad (2011) Cuarta Temporada [NF] WEB-DL 4K HDR Latino – CMHDD 4K HDR 1080p gratis, Breaking Bad (2011) Cuarta Temporada [NF] WEB-DL 4K HDR Latino – CMHDD 4K HDR mega 1 link, Breaking Bad (2011) Cuarta Temporada [NF] WEB-DL 4K HDR Latino – CMHDD 4K HDR pelicula completa, descargar Breaking Bad (2011) Cuarta Temporada [NF] WEB-DL 4K HDR Latino – CMHDD 4K HDR gratis en mega.

Breaking Bad (2011) Cuarta Temporada [NF] WEB-DL 4K HDR Latino – CMHDD pelicula full hd, Breaking Bad (2011) Cuarta Temporada [NF] WEB-DL 4K HDR Latino – CMHDD mega latino, Breaking Bad (2011) Cuarta Temporada [NF] WEB-DL 4K HDR Latino – CMHDD 4k latino, Breaking Bad (2011) Cuarta Temporada [NF] WEB-DL 4K HDR Latino – CMHDD pelicula completa, Breaking Bad (2011) Cuarta Temporada [NF] WEB-DL 4K HDR Latino – CMHDD descargar gratis, descargar Breaking Bad (2011) Cuarta Temporada [NF] WEB-DL 4K HDR Latino – CMHDD pelicula latino, Breaking Bad (2011) Cuarta Temporada [NF] WEB-DL 4K HDR Latino – CMHDD 1 link mega, Breaking Bad (2011) Cuarta Temporada [NF] WEB-DL 4K HDR Latino – CMHDD 1 link google drive, Breaking Bad (2011) Cuarta Temporada [NF] WEB-DL 4K HDR Latino – CMHDD hd 1080p latino.
Comentarios 0