×

¿Problemas para descargar con Mozilla, EDGE? Deshabilita la opción "Abrir vinculos en una pestaña nueva" tal como lo muestra ésta imagen.

Breaking Bad (2010) Tercera Temporada [NF] WEB-DL 4K HDR Latino – CMHDD

92 vistas

Información de Breaking Bad (2010) Tercera Temporada [NF] WEB-DL 4K HDR Latino – CMHDD

Datos de la película

  • Calidad: 4K HDR
  • Audio: Español Latino E-AC3 5.1 Netflix - Ingles E-AC3 5.1 Netflix
  • Subtitulos: Español Latino SRT
  • Resolución: 3840x2160p
  • Formato: MKV
  • Codec: H.264
  • Encoder: Dracarys
  • Mediainfo: Clic para Mostrar Datos Ver
  • Format                      : Matroska
    Format version              : Version 4
    File size                   : 5.61 GiB
    Duration                    : 47 min 29 s
    Overall bit rate            : 16.9 Mb/s
    Encoded date                : UTC 2022-05-28 16:10:19 / UTC 2016-10-12 11:31:13
    Writing application         : mkvmerge v63.0.0 ('Everything') 64-bit
    Writing library             : libebml v1.4.2 + libmatroska v1.6.4 / Lavf58.0.0

    Video
    ID                          : 1
    Format                      : HEVC
    Format/Info                 : High Efficiency Video Coding
    Format profile              : Main 10@L5@Main
    Codec ID                    : V_MPEGH/ISO/HEVC
    Duration                    : 47 min 28 s
    Bit rate                    : 15.6 Mb/s
    Width                       : 3 840 pixels
    Height                      : 2 160 pixels
    Display aspect ratio        : 16:9
    Frame rate mode             : Constant
    Frame rate                  : 23.976 (24000/1001) FPS
    Color space                 : YUV
    Chroma subsampling          : 4:2:0
    Bit depth                   : 10 bits
    Bits/(Pixel*Frame)          : 0.079
    Stream size                 : 5.19 GiB (92%)
    Default                     : Yes
    Forced                      : No

    Audio #1
    ID                          : 2
    Format                      : E-AC-3
    Format/Info                 : Enhanced AC-3
    Commercial name             : Dolby Digital Plus
    Codec ID                    : A_EAC3
    Duration                    : 47 min 29 s
    Bit rate mode               : Constant
    Bit rate                    : 640 kb/s
    Channel(s)                  : 6 channels
    Channel layout              : L R C LFE Ls Rs
    Sampling rate               : 48.0 kHz
    Frame rate                  : 31.250 FPS (1536 SPF)
    Bit depth                   : 32 bits
    Compression mode            : Lossy
    Stream size                 : 217 MiB (4%)
    Title                       : Latin American
    Language                    : Spanish
    Service kind                : Complete Main
    Default                     : Yes
    Forced                      : No

    Audio #2
    ID                          : 3
    Format                      : E-AC-3
    Format/Info                 : Enhanced AC-3
    Commercial name             : Dolby Digital Plus
    Codec ID                    : A_EAC3
    Duration                    : 47 min 29 s
    Bit rate mode               : Constant
    Bit rate                    : 640 kb/s
    Channel(s)                  : 6 channels
    Channel layout              : L R C LFE Ls Rs
    Sampling rate               : 48.0 kHz
    Frame rate                  : 31.250 FPS (1536 SPF)
    Bit depth                   : 32 bits
    Compression mode            : Lossy
    Stream size                 : 217 MiB (4%)
    Language                    : English
    Service kind                : Complete Main
    Default                     : No
    Forced                      : No

    Text
    ID                          : 4
    Format                      : UTF-8
    Codec ID                    : S_TEXT/UTF8
    Codec ID/Info               : UTF-8 Plain Text
    Duration                    : 40 min 12 s
    Bit rate                    : 53 b/s
    Frame rate                  : 0.169 FPS
    Count of elements           : 407
    Stream size                 : 15.7 KiB (0%)
    Title                       : Latin American
    Language                    : Spanish
    Default                     : No
    Forced                      : No

     

  • Peso: 73 GiB

Sinopsis

El profesor calmado de química de una secundaria, Walter White cree que su vida no puede ser peor. Su salario apenas le alcanza para sostener a su familia, una situación que no mejora cuando su esposa da a luz y su hijo adolescente sufre de parálisis cerebral, pero Walter queda anonadado cuando se entera que tiene un cáncer terminal. Al concluir que su enfermedad iba a arruinar financieramente a su familia, él toma una decisión desesperada con el fin de ganar más dinero durante el tiempo que le queda y transforma un viejo vehículo de recreación en un laboratorio de matanfetaminas sobre ruedas.

Ficha técnica

Video trailer de la película

Enlaces de descarga

Rip de Bluray

Descargar Breaking Bad (2010) Tercera Temporada [NF] WEB-DL 4K HDR Latino – CMHDD


Aportes de DPeliculasHDmega la pass es:dpeliculashdmega.org Aportes de CinemaniaHD la pass es:cinemaniahdd.com Aportes recientes:cinemaniahdd.net
Guardado en : Crimen , Drama

Películas relacionadas

descargar Breaking Bad (2010) Tercera Temporada [NF] WEB-DL 4K HDR Latino – CMHDD 4K HDR 1080p gratis, Breaking Bad (2010) Tercera Temporada [NF] WEB-DL 4K HDR Latino – CMHDD 4K HDR mega 1 link, Breaking Bad (2010) Tercera Temporada [NF] WEB-DL 4K HDR Latino – CMHDD 4K HDR pelicula completa, descargar Breaking Bad (2010) Tercera Temporada [NF] WEB-DL 4K HDR Latino – CMHDD 4K HDR gratis en mega.

Breaking Bad (2010) Tercera Temporada [NF] WEB-DL 4K HDR Latino – CMHDD pelicula full hd, Breaking Bad (2010) Tercera Temporada [NF] WEB-DL 4K HDR Latino – CMHDD mega latino, Breaking Bad (2010) Tercera Temporada [NF] WEB-DL 4K HDR Latino – CMHDD 4k latino, Breaking Bad (2010) Tercera Temporada [NF] WEB-DL 4K HDR Latino – CMHDD pelicula completa, Breaking Bad (2010) Tercera Temporada [NF] WEB-DL 4K HDR Latino – CMHDD descargar gratis, descargar Breaking Bad (2010) Tercera Temporada [NF] WEB-DL 4K HDR Latino – CMHDD pelicula latino, Breaking Bad (2010) Tercera Temporada [NF] WEB-DL 4K HDR Latino – CMHDD 1 link mega, Breaking Bad (2010) Tercera Temporada [NF] WEB-DL 4K HDR Latino – CMHDD 1 link google drive, Breaking Bad (2010) Tercera Temporada [NF] WEB-DL 4K HDR Latino – CMHDD hd 1080p latino.
Comentarios 0