×

¿Problemas para descargar con Mozilla, EDGE? Deshabilita la opción "Abrir vinculos en una pestaña nueva" tal como lo muestra ésta imagen.

Diamantes Para El Desayuno (1961) REMUX 1080p Latino

330 vistas

Información de Diamantes Para El Desayuno (1961) REMUX 1080p Latino

Datos de la película

  • Calidad: Full 1080p
  • Audio: Español Latino AC3 2.0 BLURAY - Ingles DTS 5.1 BLURAY
  • Subtitulos: Español Latino PGS - Ingles PGS
  • Resolución: 1920x1080p
  • Formato: MKV
  • Codec: H.264
  • Encoder: CinefiloCool
  • Mediainfo: Clic para Mostrar Datos Ver
  • Diamantes Para El Desayuno (1961) REMUX 1080p Latino-CMHDD.mkv
    Format                      : Matroska
    Format version              : Version 4
    File size                   : 28.5 GiB
    Duration                    : 1 h 55 min
    Overall bit rate mode       : Variable
    Overall bit rate            : 35.5 Mb/s
    Movie name                  : Breakfast At Tiffanys (1961) CinemaniaHDD.Net
    Encoded date                : UTC 2020-06-23 15:30:13
    Writing application         : mkvmerge v46.0.0 ('No Deeper Escape') 64-bit
    Writing library             : libebml v1.3.10 + libmatroska v1.5.2
    Attachments                 : CINEMANIAHD.png

    Video
    ID                          : 1
    Format                      : AVC
    Format/Info                 : Advanced Video Codec
    Format profile              : High@L4.1
    Format settings             : CABAC / 2 Ref Frames
    Format settings, CABAC      : Yes
    Format settings, Reference  : 2 frames
    Format settings, GOP        : M=1, N=10
    Codec ID                    : V_MPEG4/ISO/AVC
    Duration                    : 1 h 55 min
    Bit rate mode               : Variable
    Bit rate                    : 31.9 Mb/s
    Width                       : 1 920 pixels
    Height                      : 1 080 pixels
    Display aspect ratio        : 16:9
    Frame rate mode             : Constant
    Frame rate                  : 23.976 (24000/1001) FPS
    Color space                 : YUV
    Chroma subsampling          : 4:2:0
    Bit depth                   : 8 bits
    Scan type                   : Progressive
    Bits/(Pixel*Frame)          : 0.641
    Stream size                 : 25.6 GiB (90%)
    Title                       : REMUX 1080p [CinemaniaHDD]
    Language                    : English
    Default                     : Yes
    Forced                      : No

    Audio #1
    ID                          : 2
    Format                      : AC-3
    Format/Info                 : Audio Coding 3
    Commercial name             : Dolby Digital
    Codec ID                    : A_AC3
    Duration                    : 1 h 55 min
    Bit rate mode               : Constant
    Bit rate                    : 224 kb/s
    Channel(s)                  : 2 channels
    Channel layout              : L R
    Sampling rate               : 48.0 kHz
    Frame rate                  : 31.250 FPS (1536 SPF)
    Compression mode            : Lossy
    Stream size                 : 184 MiB (1%)
    Title                       : Español Latino [CinemaniaHDD]
    Language                    : Spanish
    Service kind                : Complete Main
    Default                     : Yes
    Forced                      : No

    Audio #2
    ID                          : 3
    Format                      : DTS XLL
    Format/Info                 : Digital Theater Systems
    Commercial name             : DTS-HD Master Audio
    Codec ID                    : A_DTS
    Duration                    : 1 h 55 min
    Bit rate mode               : Variable
    Bit rate                    : 3 340 kb/s
    Channel(s)                  : 6 channels
    Channel layout              : C L R Ls Rs LFE
    Sampling rate               : 48.0 kHz
    Frame rate                  : 93.750 FPS (512 SPF)
    Bit depth                   : 24 bits
    Compression mode            : Lossless
    Stream size                 : 2.69 GiB (9%)
    Title                       : Ingles [CinemaniaHDD]
    Language                    : English
    Default                     : No
    Forced                      : No

    Text #1
    ID                          : 4
    Format                      : PGS
    Muxing mode                 : zlib
    Codec ID                    : S_HDMV/PGS
    Codec ID/Info               : Picture based subtitle format used on BDs/HD-DVDs
    Duration                    : 1 h 53 min
    Bit rate                    : 38.0 kb/s
    Count of elements           : 3016
    Stream size                 : 30.9 MiB (0%)
    Title                       : Español-PGS [CinemaniaHDD]
    Language                    : Spanish
    Default                     : No
    Forced                      : No

    Text #2
    ID                          : 5
    Format                      : PGS
    Muxing mode                 : zlib
    Codec ID                    : S_HDMV/PGS
    Codec ID/Info               : Picture based subtitle format used on BDs/HD-DVDs
    Duration                    : 1 h 50 min
    Bit rate                    : 43.5 kb/s
    Count of elements           : 3054
    Stream size                 : 34.4 MiB (0%)
    Title                       : Ingles-PGS [CinemaniaHDD]
    Language                    : English
    Default                     : No
    Forced                      : No

    Text #3
    ID                          : 6
    Format                      : UTF-8
    Codec ID                    : S_TEXT/UTF8
    Codec ID/Info               : UTF-8 Plain Text
    Duration                    : 1 h 53 min
    Bit rate                    : 0 b/s
    Count of elements           : 7
    Stream size                 : 244 Bytes (0%)
    Title                       : Forzados-SRT [CinemaniaHDD]
    Language                    : Spanish
    Default                     : Yes
    Forced                      : No

    Text #4
    ID                          : 7
    Format                      : UTF-8
    Codec ID                    : S_TEXT/UTF8
    Codec ID/Info               : UTF-8 Plain Text
    Duration                    : 1 h 52 min
    Bit rate                    : 62 b/s
    Count of elements           : 1376
    Stream size                 : 51.5 KiB (0%)
    Title                       : Español-SRT [CinemaniaHDD]
    Language                    : Spanish
    Default                     : No
    Forced                      : No

    Menu
    00:00:00.000                : en:The Mean Reds
    00:13:20.633                : en:My Decorator
    00:17:03.564                : en:Fred
    00:24:44.065                : en:Drinks at Six
    00:39:54.225                : en:Sally Tomato
    00:41:55.471                : en:"Moon River"
    00:43:50.502                : en:Lula Mae Barnes
    00:52:02.702                : en:Trying to Love a Wild Thing
    00:57:51.885                : en:Very Drunk Indeed
    01:04:34.662                : en:Things We've Never Done
    01:19:41.943                : en:Girl Trouble?
    01:26:02.907                : en:The Powder Room
    01:33:07.039                : en:A Real Phony
    01:44:36.478                : en:Running Into Yourself

  • Peso: 28.5 GiB

Sinopsis

Descargar Diamantes Para El Desayuno [Muñequita de Lujo] (1961) REMUX 1080p Latino. Holly Golightly es una bella joven de la alta sociedad neoyorquina que bajo su vida alegre esconde una gran tristeza. Holly tiene un comportamiento algo alocado, y alguna manía, como por ejemplo desayunar contemplando el escaparate de la lujosa joyería Tiffanys. Un día se muda a su mismo edificio Paul Varjak, un escritor en ciernes que mientras espera alcanzar un éxito que nunca llega vive de la relación con una mujer madura que le mantiene. Holly y Paul enseguida entablarán una bonita amistad.

Ficha técnica

Video trailer de la película

Enlaces de descarga

Rip de Bluray

Descargar Diamantes Para El Desayuno (1961) REMUX 1080p Latino




Aportes de DPeliculasHDmega la pass es:dpeliculashdmega.org Aportes de CinemaniaHD la pass es:cinemaniahdd.com
Guardado en : Comedia , Drama , Remux , Romance

Películas relacionadas

Diamantes Para El Desayuno (1961) REMUX 1080p Latino pelicula full hd, Diamantes Para El Desayuno (1961) REMUX 1080p Latino mega latino, Diamantes Para El Desayuno (1961) REMUX 1080p Latino 4k latino, Diamantes Para El Desayuno (1961) REMUX 1080p Latino pelicula completa, Diamantes Para El Desayuno (1961) REMUX 1080p Latino descargar gratis, descargar Diamantes Para El Desayuno (1961) REMUX 1080p Latino pelicula latino, Diamantes Para El Desayuno (1961) REMUX 1080p Latino 1 link mega, Diamantes Para El Desayuno (1961) REMUX 1080p Latino 1 link google drive, Diamantes Para El Desayuno (1961) REMUX 1080p Latino hd 1080p latino.
Comentarios 0