×

¿Problemas para descargar con Mozilla, EDGE? Deshabilita la opción "Abrir vinculos en una pestaña nueva" tal como lo muestra ésta imagen.

Braveheart (1995) REMUX 4K HDR Latino – CMHDD

396 vistas

Información de Braveheart (1995) REMUX 4K HDR Latino – CMHDD

Datos de la película

  • Calidad: 4K HDR
  • Audio: Español Latino DTS 5.1 BLURAY - Ingles DTS-HD Master 7.1 BLURAY
  • Subtitulos: Español Latino PGS
  • Resolución: 3840x2160p
  • Formato: MKV
  • Codec: H.264
  • Encoder: Dracarys
  • Mediainfo: Clic para Mostrar Datos Ver
  • Format                      : Matroska
    Format version              : Version 4
    File size                   : 78.2 GiB
    Duration                    : 2 h 57 min
    Overall bit rate mode       : Variable
    Overall bit rate            : 63.0 Mb/s
    Movie name                  : Braveheart (1995) REMUX 4K HDR Latino - CMHDD
    Encoded date                : UTC 2023-03-17 21:05:20
    Writing application         : mkvmerge v47.0.0 ('Black Flag') 64-bit
    Writing library             : libebml v1.3.10 + libmatroska v1.5.2

    Video
    ID                          : 1
    ID in the original source m : 4113 (0x1011)
    Format                      : HEVC
    Format/Info                 : High Efficiency Video Coding
    Format profile              : Main 10@L5.1@High
    HDR format                  : SMPTE ST 2086, HDR10 compatible
    Codec ID                    : V_MPEGH/ISO/HEVC
    Duration                    : 2 h 57 min
    Bit rate                    : 57.4 Mb/s
    Width                       : 3 840 pixels
    Height                      : 2 160 pixels
    Display aspect ratio        : 16:9
    Frame rate mode             : Constant
    Frame rate                  : 23.976 (24000/1001) FPS
    Color space                 : YUV
    Chroma subsampling          : 4:2:0 (Type 2)
    Bit depth                   : 10 bits
    Bits/(Pixel*Frame)          : 0.289
    Stream size                 : 71.3 GiB (91%)
    Language                    : English
    Default                     : No
    Forced                      : No
    Color range                 : Limited
    Color primaries             : BT.2020
    Transfer characteristics    : PQ
    Matrix coefficients         : BT.2020 non-constant
    Mastering display color pri : Display P3
    Mastering display luminance : min: 0.0001 cd/m2, max: 1000 cd/m2
    Original source medium      : Blu-ray

    Audio #1
    ID                          : 2
    Format                      : DTS XLL
    Format/Info                 : Digital Theater Systems
    Commercial name             : DTS-HD Master Audio
    Codec ID                    : A_DTS
    Duration                    : 2 h 57 min
    Bit rate mode               : Variable
    Bit rate                    : 4 252 kb/s
    Channel(s)                  : 8 channels
    Channel layout              : C L R LFE Lb Rb Lss Rss
    Sampling rate               : 48.0 kHz
    Frame rate                  : 93.750 FPS (512 SPF)
    Bit depth                   : 24 bits
    Compression mode            : Lossless
    Stream size                 : 5.28 GiB (7%)
    Title                       : DTS-HD MA 7.1
    Language                    : English
    Default                     : No
    Forced                      : No

    Audio #2
    ID                          : 3
    ID in the original source m : 4352 (0x1100)
    Format                      : AC-3
    Format/Info                 : Audio Coding 3
    Commercial name             : Dolby Digital
    Format settings             : Dolby Surround EX
    Codec ID                    : A_AC3
    Duration                    : 2 h 57 min
    Bit rate mode               : Constant
    Bit rate                    : 640 kb/s
    Channel(s)                  : 6 channels
    Channel layout              : L R C LFE Ls Rs
    Sampling rate               : 48.0 kHz
    Frame rate                  : 31.250 FPS (1536 SPF)
    Compression mode            : Lossy
    Delay relative to video     : 2 s 169 ms
    Stream size                 : 813 MiB (1%)
    Title                       : DD 5.1
    Language                    : English
    Service kind                : Complete Main
    Default                     : No
    Forced                      : No
    Original source medium      : Blu-ray

    Audio #3
    ID                          : 4
    ID in the original source m : 4354 (0x1102)
    Format                      : AC-3
    Format/Info                 : Audio Coding 3
    Commercial name             : Dolby Digital
    Codec ID                    : A_AC3
    Duration                    : 2 h 57 min
    Bit rate mode               : Constant
    Bit rate                    : 640 kb/s
    Channel(s)                  : 6 channels
    Channel layout              : L R C LFE Ls Rs
    Sampling rate               : 48.0 kHz
    Frame rate                  : 31.250 FPS (1536 SPF)
    Compression mode            : Lossy
    Delay relative to video     : 2 s 169 ms
    Stream size                 : 813 MiB (1%)
    Title                       : DD 5.1
    Language                    : Spanish
    Service kind                : Complete Main
    Default                     : Yes
    Forced                      : No
    Original source medium      : Blu-ray

    Text #1
    ID                          : 5
    ID in the original source m : 4771 (0x12A3)
    Format                      : PGS
    Muxing mode                 : zlib
    Codec ID                    : S_HDMV/PGS
    Codec ID/Info               : Picture based subtitle format used on BDs/HD-DVDs
    Duration                    : 2 h 49 min
    Bit rate                    : 18.0 kb/s
    Frame rate                  : 0.255 FPS
    Count of elements           : 2600
    Stream size                 : 21.9 MiB (0%)
    Language                    : Spanish
    Default                     : No
    Forced                      : No
    Original source medium      : Blu-ray

    Text #2
    ID                          : 6
    ID in the original source m : 4774 (0x12A6)
    Format                      : PGS
    Muxing mode                 : zlib
    Codec ID                    : S_HDMV/PGS
    Codec ID/Info               : Picture based subtitle format used on BDs/HD-DVDs
    Duration                    : 2 h 49 min
    Bit rate                    : 25.9 kb/s
    Frame rate                  : 0.263 FPS
    Count of elements           : 2682
    Stream size                 : 31.5 MiB (0%)
    Language                    : Spanish
    Default                     : No
    Forced                      : No
    Original source medium      : Blu-ray

    Menu
    00:00:00.000                : en:Chapter 01
    00:07:25.528                : en:Chapter 02
    00:16:24.441                : en:Chapter 03
    00:22:00.694                : en:Chapter 04
    00:34:16.888                : en:Chapter 05
    00:39:49.678                : en:Chapter 06
    00:56:04.611                : en:Chapter 07
    01:00:01.264                : en:Chapter 08
    01:07:28.044                : en:Chapter 09
    01:11:51.598                : en:Chapter 10
    01:19:01.528                : en:Chapter 11
    01:33:03.202                : en:Chapter 12
    01:43:44.718                : en:Chapter 13
    01:53:55.078                : en:Chapter 14
    01:58:58.172                : en:Chapter 15
    02:17:15.101                : en:Chapter 16
    02:24:18.608                : en:Chapter 17
    02:28:49.712                : en:Chapter 18
    02:34:12.201                : en:Chapter 19
    02:36:32.091                : en:Chapter 20
    02:46:53.878                : en:Chapter 21
    02:50:43.066                : en:Chapter 22

  • Peso: 78.2 GiB

Sinopsis

¿Qué clase de hombre desafiaría a un rey? ‘Braveheart’ es una historia épica medieval sobre la independencia de Escocia en el siglo XIII, basada en la leyenda de William Wallace, un montañés escocés que arrastra a su clan a luchar contra la tiranía del rey Eduardo I de Inglaterra. Después del brutal asesinato de su joven esposa por los ingleses, Wallace sólo busca venganza. Hambrientos y en inferior número, Wallace lidera a los patriotas escoceses y consigue organizar un ejército de guerreros sedientos de libertad logrando recuperar con ello el espíritu que haría a Escocia libre para siempre.

Ficha técnica

Video trailer de la película

Enlaces de descarga

Rip de Bluray

Descargar Braveheart (1995) REMUX 4K HDR Latino – CMHDD




Aportes de DPeliculasHDmega la pass es:dpeliculashdmega.org Aportes de CinemaniaHD la pass es:cinemaniahdd.com Aportes recientes:cinemaniahdd.net
Guardado en : Acción , Bélica , Drama , Historia

Películas relacionadas

descargar Braveheart (1995) REMUX 4K HDR Latino – CMHDD 4K HDR 1080p gratis, Braveheart (1995) REMUX 4K HDR Latino – CMHDD 4K HDR mega 1 link, Braveheart (1995) REMUX 4K HDR Latino – CMHDD 4K HDR pelicula completa, descargar Braveheart (1995) REMUX 4K HDR Latino – CMHDD 4K HDR gratis en mega.

Braveheart (1995) REMUX 4K HDR Latino – CMHDD pelicula full hd, Braveheart (1995) REMUX 4K HDR Latino – CMHDD mega latino, Braveheart (1995) REMUX 4K HDR Latino – CMHDD 4k latino, Braveheart (1995) REMUX 4K HDR Latino – CMHDD pelicula completa, Braveheart (1995) REMUX 4K HDR Latino – CMHDD descargar gratis, descargar Braveheart (1995) REMUX 4K HDR Latino – CMHDD pelicula latino, Braveheart (1995) REMUX 4K HDR Latino – CMHDD 1 link mega, Braveheart (1995) REMUX 4K HDR Latino – CMHDD 1 link google drive, Braveheart (1995) REMUX 4K HDR Latino – CMHDD hd 1080p latino.
Comentarios 0