×

¿Problemas para descargar con Mozilla, EDGE? Deshabilita la opción "Abrir vinculos en una pestaña nueva" tal como lo muestra ésta imagen.

Brave (2012) REMUX 4K HDR Latino – CMHDD

218 vistas

Información de Brave (2012) REMUX 4K HDR Latino – CMHDD

Datos de la película

  • Calidad: 4K HDR
  • Audio: Español Latino AC3 5.1 BLURAY - Ingles AC3 5.1 BLURAY
  • Subtitulos: Español Latino PGS
  • Resolución: 3840x2160p
  • Formato: MKV
  • Codec: H.264
  • Encoder: Dracarys
  • Mediainfo: Clic para Mostrar Datos Ver
  • Format                      : Matroska
    Format version              : Version 4
    File size                   : 40.9 GiB
    Duration                    : 1 h 34 min
    Overall bit rate mode       : Variable
    Overall bit rate            : 62.2 Mb/s
    Movie name                  : Brave (2012) REMUX 4K HDR Latino - CMHDD
    Encoded date                : UTC 2022-04-27 19:03:11
    Writing application         : mkvmerge v17.0.0 ('Be Ur Friend') 64-bit
    Writing library             : libebml v1.3.5 + libmatroska v1.4.8

    Video
    ID                          : 1
    Format                      : HEVC
    Format/Info                 : High Efficiency Video Coding
    Format profile              : Main 10@L5.1@High
    HDR format                  : SMPTE ST 2086, HDR10 compatible
    Codec ID                    : V_MPEGH/ISO/HEVC
    Duration                    : 1 h 34 min
    Bit rate                    : 52.2 Mb/s
    Width                       : 3 840 pixels
    Height                      : 2 160 pixels
    Display aspect ratio        : 16:9
    Frame rate mode             : Constant
    Frame rate                  : 23.976 (23976/1000) FPS
    Original frame rate         : 23.976 (24000/1001) FPS
    Color space                 : YUV
    Chroma subsampling          : 4:2:0 (Type 2)
    Bit depth                   : 10 bits
    Bits/(Pixel*Frame)          : 0.262
    Stream size                 : 34.3 GiB (84%)
    Writing library             : ATEME Titan File 3.9.0 (4.9.0.0)        
    Default                     : Yes
    Forced                      : No
    Color range                 : Limited
    Color primaries             : BT.2020
    Transfer characteristics    : PQ
    Matrix coefficients         : BT.2020 non-constant
    Mastering display color pri : Display P3
    Mastering display luminance : min: 0.0000 cd/m2, max: 1000 cd/m2

    Audio #1
    ID                          : 2
    Format                      : MLP FBA 16-ch
    Format/Info                 : Meridian Lossless Packing FBA with 16-channel presentation
    Commercial name             : Dolby TrueHD with Dolby Atmos
    Codec ID                    : A_TRUEHD
    Duration                    : 1 h 33 min
    Bit rate mode               : Variable
    Bit rate                    : 7 817 kb/s
    Maximum bit rate            : 10.9 Mb/s
    Channel(s)                  : 8 channels
    Channel layout              : L R C LFE Ls Rs Lb Rb
    Sampling rate               : 48.0 kHz
    Frame rate                  : 1 200.000 FPS (40 SPF)
    Compression mode            : Lossless
    Delay relative to video     : 32 ms
    Stream size                 : 5.12 GiB (13%)
    Language                    : English
    Default                     : No
    Forced                      : No
    Number of dynamic objects   : 13
    Bed channel count           : 1 channel
    Bed channel configuration   : LFE

    Audio #2
    ID                          : 3
    Format                      : AC-3
    Format/Info                 : Audio Coding 3
    Commercial name             : Dolby Digital
    Codec ID                    : A_AC3
    Duration                    : 1 h 33 min
    Bit rate mode               : Constant
    Bit rate                    : 640 kb/s
    Channel(s)                  : 6 channels
    Channel layout              : L R C LFE Ls Rs
    Sampling rate               : 48.0 kHz
    Frame rate                  : 31.250 FPS (1536 SPF)
    Compression mode            : Lossy
    Delay relative to video     : 31 ms
    Stream size                 : 429 MiB (1%)
    Language                    : English
    Service kind                : Complete Main
    Default                     : No
    Forced                      : No

    Audio #3
    ID                          : 4
    Format                      : E-AC-3
    Format/Info                 : Enhanced AC-3
    Commercial name             : Dolby Digital Plus
    Format profile              : Blu-ray Disc
    Codec ID                    : A_EAC3
    Duration                    : 1 h 33 min
    Bit rate mode               : Constant
    Bit rate                    : 896 kb/s
    Channel(s)                  : 6 channels
    Channel(s)_Original         : 8 channels
    ChannelLayout_Original      : L R C LFE Ls Rs Lrs Rrs
    Sampling rate               : 48.0 kHz
    Frame rate                  : 31.250 FPS (1536 SPF)
    Compression mode            : Lossy
    Stream size                 : 601 MiB (1%)
    Language                    : English
    Service kind                : Complete Main
    Default                     : No
    Forced                      : No

    Audio #4
    ID                          : 5
    Format                      : AC-3
    Format/Info                 : Audio Coding 3
    Commercial name             : Dolby Digital
    Codec ID                    : A_AC3
    Duration                    : 1 h 34 min
    Bit rate mode               : Constant
    Bit rate                    : 640 kb/s
    Channel(s)                  : 6 channels
    Channel layout              : L R C LFE Ls Rs
    Sampling rate               : 48.0 kHz
    Frame rate                  : 31.250 FPS (1536 SPF)
    Compression mode            : Lossy
    Stream size                 : 431 MiB (1%)
    Language                    : Spanish
    Service kind                : Complete Main
    Default                     : Yes
    Forced                      : No

    Text
    ID                          : 6
    Format                      : PGS
    Muxing mode                 : zlib
    Codec ID                    : S_HDMV/PGS
    Codec ID/Info               : Picture based subtitle format used on BDs/HD-DVDs
    Duration                    : 1 h 32 min
    Bit rate                    : 22.3 kb/s
    Count of elements           : 1472
    Stream size                 : 14.8 MiB (0%)
    Language                    : Spanish
    Default                     : No
    Forced                      : No

    Menu
    00:00:00.000                : en:Chapter 1
    00:04:23.680                : en:Chapter 2
    00:09:18.266                : en:Chapter 3
    00:12:54.190                : en:Chapter 4
    00:14:01.090                : en:Chapter 5
    00:16:11.303                : en:Chapter 6
    00:17:37.514                : en:Chapter 7
    00:22:56.625                : en:Chapter 8
    00:27:23.725                : en:Chapter 9
    00:28:52.063                : en:Chapter 10
    00:30:55.687                : en:Chapter 11
    00:34:01.205                : en:Chapter 12
    00:36:04.328                : en:Chapter 13
    00:39:07.762                : en:Chapter 14
    00:41:55.930                : en:Chapter 15
    00:43:28.814                : en:Chapter 16
    00:47:06.573                : en:Chapter 17
    00:48:23.191                : en:Chapter 18
    00:51:04.895                : en:Chapter 19
    00:52:34.693                : en:Chapter 20
    00:54:01.988                : en:Chapter 21
    00:54:46.533                : en:Chapter 22
    00:57:31.698                : en:Chapter 23
    00:59:00.995                : en:Chapter 24
    01:02:49.015                : en:Chapter 25
    01:03:28.221                : en:Chapter 26
    01:09:58.569                : en:Chapter 27
    01:10:38.108                : en:Chapter 28
    01:12:36.560                : en:Chapter 29
    01:13:40.332                : en:Chapter 30
    01:15:36.323                : en:Chapter 31
    01:16:59.906                : en:Chapter 32
    01:17:37.944                : en:Chapter 33
    01:19:49.034                : en:Chapter 34
    01:23:17.617                : en:Chapter 35
    01:24:39.491                : en:Chapter 36
    01:33:28.436                : en:Chapter 37

  • Peso: 40.9 GiB

Sinopsis

Merida, la indómita hija del Rey Fergus y de la Reina Elinor, es una hábil arquera que decide romper con una antigua costumbre, que es sagrada para los señores de la tierra: el gigantesco Lord MacGuffin, el malhumorado Lord Macintosh y el cascarrabias Lord Dingwall. Las acciones de Merida desencadenan el caos y la furia en el reino. Además, pide ayuda a una sabia anciana que le concede un deseo muy desafortunado. La muchacha tendrá que afrontar grandes peligros antes de aprender qué es la auténtica valentía.

Ficha técnica

Video trailer de la película

Enlaces de descarga

Rip de Bluray

Descargar Brave (2012) REMUX 4K HDR Latino – CMHDD


Aportes de DPeliculasHDmega la pass es:dpeliculashdmega.org Aportes de CinemaniaHD la pass es:cinemaniahdd.com

Películas relacionadas

  • Mi amigo el dragón (2016) Full HD 1080p Latino

    Mi amigo el dragón (2016) Full HD 1080p Latino

    2016
    Mi amigo el dragón (2016) Full HD 1080p Latino

    1h 43m 2016

    Descargar Mi amigo el dragón (2016) Full HD 1080p Latino. Durante años el Sr. Meacham, un viejo tallador...

    Director: Joe Nolan

    Género: Aventura

    Actores: William J. Rawbone

  • Mi amigo el dragón (2016) REMUX 1080p Latino

    Mi amigo el dragón (2016) REMUX 1080p Latino

    2016
    Mi amigo el dragón (2016) REMUX 1080p Latino

    1h 43m 2016

    Descargar Mi amigo el dragón (2016) REMUX 1080p Latino. Durante años el Sr. Meacham, un viejo tallador...

    Director: Joe Nolan

    Género: Aventura

    Actores: William J. Rawbone

  • Lucy (2014) REMUX 4K HDR Latino – CMHDD

    Lucy (2014) REMUX 4K HDR Latino – CMHDD

    2014
    Lucy (2014) REMUX 4K HDR Latino – CMHDD

    1h 30m 2014

    Lucy, una joven obligada a ejercer de mula de una nueva y potente droga, adquiere de repente enormes...

    Director: Luc Besson

    Género: Acción

    Actores: Wolfgang Pissors

descargar Brave (2012) REMUX 4K HDR Latino – CMHDD 4K HDR 1080p gratis, Brave (2012) REMUX 4K HDR Latino – CMHDD 4K HDR mega 1 link, Brave (2012) REMUX 4K HDR Latino – CMHDD 4K HDR pelicula completa, descargar Brave (2012) REMUX 4K HDR Latino – CMHDD 4K HDR gratis en mega.

Brave (2012) REMUX 4K HDR Latino – CMHDD pelicula full hd, Brave (2012) REMUX 4K HDR Latino – CMHDD mega latino, Brave (2012) REMUX 4K HDR Latino – CMHDD 4k latino, Brave (2012) REMUX 4K HDR Latino – CMHDD pelicula completa, Brave (2012) REMUX 4K HDR Latino – CMHDD descargar gratis, descargar Brave (2012) REMUX 4K HDR Latino – CMHDD pelicula latino, Brave (2012) REMUX 4K HDR Latino – CMHDD 1 link mega, Brave (2012) REMUX 4K HDR Latino – CMHDD 1 link google drive, Brave (2012) REMUX 4K HDR Latino – CMHDD hd 1080p latino.
Comentarios 0