×

¿Problemas para descargar con Mozilla, EDGE? Deshabilita la opción "Abrir vinculos en una pestaña nueva" tal como lo muestra ésta imagen.

Brainstorm (1983) REMUX 1080p Latino – CMHDD

169 vistas

Información de Brainstorm (1983) REMUX 1080p Latino – CMHDD

Datos de la película

  • Calidad: Full 1080p
  • Audio: Español Latino AC3 1.0 BLURAY - Ingles DTS 5.1 BLURAY
  • Subtitulos: Español Latino PGS
  • Resolución: 1920x1080p
  • Formato: MKV
  • Codec: H.264
  • Encoder: Dracarys
  • Mediainfo: Clic para Mostrar Datos Ver
  • Format                      : Matroska
    Format version              : Version 4
    File size                   : 17.5 GiB
    Duration                    : 1 h 46 min
    Overall bit rate mode       : Variable
    Overall bit rate            : 23.5 Mb/s
    Movie name                  : Brainstorm (1983) REMUX 1080p Latino - CMHDD
    Encoded date                : UTC 2023-06-06 03:06:49
    Writing application         : mkvmerge v47.0.0 ('Black Flag') 64-bit
    Writing library             : libebml v1.3.10 + libmatroska v1.5.2
    Cover                       : Yes
    Attachments                 : cover.jpg

    Video
    ID                          : 1
    ID in the original source m : 4113 (0x1011)
    Format                      : AVC
    Format/Info                 : Advanced Video Codec
    Format profile              : High@L4.1
    Format settings             : CABAC / 2 Ref Frames
    Format settings, CABAC      : Yes
    Format settings, Reference  : 2 frames
    Format settings, GOP        : M=1, N=10
    Codec ID                    : V_MPEG4/ISO/AVC
    Duration                    : 1 h 46 min
    Bit rate mode               : Variable
    Bit rate                    : 20.0 Mb/s
    Width                       : 1 920 pixels
    Height                      : 1 080 pixels
    Display aspect ratio        : 16:9
    Frame rate mode             : Constant
    Frame rate                  : 23.976 (24000/1001) FPS
    Color space                 : YUV
    Chroma subsampling          : 4:2:0
    Bit depth                   : 8 bits
    Scan type                   : Progressive
    Bits/(Pixel*Frame)          : 0.401
    Stream size                 : 14.8 GiB (85%)
    Default                     : Yes
    Forced                      : No
    Original source medium      : Blu-ray

    Audio #1
    ID                          : 2
    ID in the original source m : 4352 (0x1100)
    Format                      : DTS XLL
    Format/Info                 : Digital Theater Systems
    Commercial name             : DTS-HD Master Audio
    Codec ID                    : A_DTS
    Duration                    : 1 h 46 min
    Bit rate mode               : Variable
    Bit rate                    : 3 350 kb/s
    Channel(s)                  : 6 channels
    Channel layout              : C L R Ls Rs LFE
    Sampling rate               : 48.0 kHz
    Frame rate                  : 93.750 FPS (512 SPF)
    Bit depth                   : 24 bits
    Compression mode            : Lossless
    Stream size                 : 2.49 GiB (14%)
    Language                    : English
    Default                     : No
    Forced                      : No
    Original source medium      : Blu-ray

    Audio #2
    ID                          : 3
    ID in the original source m : 4353 (0x1101)
    Format                      : AC-3
    Format/Info                 : Audio Coding 3
    Commercial name             : Dolby Digital
    Codec ID                    : A_AC3
    Duration                    : 1 h 46 min
    Bit rate mode               : Constant
    Bit rate                    : 192 kb/s
    Channel(s)                  : 1 channel
    Channel layout              : C
    Sampling rate               : 48.0 kHz
    Frame rate                  : 31.250 FPS (1536 SPF)
    Compression mode            : Lossy
    Stream size                 : 146 MiB (1%)
    Language                    : Spanish
    Service kind                : Complete Main
    Default                     : Yes
    Forced                      : No
    Original source medium      : Blu-ray

    Text
    ID                          : 4
    ID in the original source m : 4610 (0x1202)
    Format                      : PGS
    Muxing mode                 : zlib
    Codec ID                    : S_HDMV/PGS
    Codec ID/Info               : Picture based subtitle format used on BDs/HD-DVDs
    Duration                    : 1 h 44 min
    Bit rate                    : 17.7 kb/s
    Frame rate                  : 0.299 FPS
    Count of elements           : 1877
    Stream size                 : 13.2 MiB (0%)
    Language                    : Spanish
    Default                     : No
    Forced                      : No
    Original source medium      : Blu-ray

    Menu
    00:00:00.000                : en:Capítulo 01
    00:02:11.339                : en:Capítulo 02
    00:06:12.163                : en:Capítulo 03
    00:08:57.578                : en:Capítulo 04
    00:12:25.453                : en:Capítulo 05
    00:15:18.042                : en:Capítulo 06
    00:20:26.558                : en:Capítulo 07
    00:25:58.640                : en:Capítulo 08
    00:29:08.246                : en:Capítulo 09
    00:34:36.199                : en:Capítulo 10
    00:36:24.974                : en:Capítulo 11
    00:41:11.969                : en:Capítulo 12
    00:49:28.173                : en:Capítulo 13
    00:53:46.473                : en:Capítulo 14
    00:59:51.004                : en:Capítulo 15
    01:03:00.026                : en:Capítulo 16
    01:07:15.197                : en:Capítulo 17
    01:10:05.910                : en:Capítulo 18
    01:12:59.875                : en:Capítulo 19
    01:17:08.457                : en:Capítulo 20
    01:22:35.116                : en:Capítulo 21
    01:26:07.787                : en:Capítulo 22
    01:32:09.815                : en:Capítulo 23
    01:36:53.349                : en:Capítulo 24
    01:41:13.734                : en:Capítulo 25
    01:43:05.929                : en:Capítulo 26

  • Peso: 17.5 GiB

Sinopsis

El doctor Brace y la doctora Reynolds están a punto de culminar un proyecto: una máquina grabadora que, unida a unos sofisticados sensores de ondas cerebrales, puede leer y grabar todas las sensaciones físicas y emocionales del individuo. Y como colofón, quieren conseguir que esa suma de sensaciones, grabadas en una cinta de diez centímetros, pueda ser reexperimentada por otra persona diferente.

Ficha técnica

Video trailer de la película

Enlaces de descarga

Rip de Bluray

Descargar Brainstorm (1983) REMUX 1080p Latino – CMHDD


Aportes de DPeliculasHDmega la pass es:dpeliculashdmega.org Aportes de CinemaniaHD la pass es:cinemaniahdd.com Aportes recientes:cinemaniahdd.net
Guardado en : Ciencia ficción , Suspenso

Películas relacionadas

  • The Teachers Lounge (2023) AMZN WEB-DL 1080p Latino

    The Teachers Lounge (2023) AMZN WEB-DL 1080p Latino

    2023
    The Teachers Lounge (2023) AMZN WEB-DL 1080p Latino

    1h 38m 2023

    Carla Nowak (LEONIE BENESCH) es una joven profesora dedicada e idealista en su primer puesto en una secundaria....

    Director: Pia Ihling

    Género: Drama

    Actores: Zayana Mielke

  • Dune: Parte dos (2024) WEB-DL 4K UHD HDR Latino

    Dune: Parte dos (2024) WEB-DL 4K UHD HDR Latino

    2024
    Dune: Parte dos (2024) WEB-DL 4K UHD HDR Latino

    2h 47m 2024

    Descargar Dune: Parte dos (2024) WEB-DL 4K UHD HDR Latino. Sigue el viaje mítico de Paul Atreides mientras...

    Director: Vera Janisch

    Género: 4K HDR

    Actores: Zouhair Elakkari

  • Dune: Parte dos (2024) AMZN WEB-DL 1080p Latino

    Dune: Parte dos (2024) AMZN WEB-DL 1080p Latino

    2024
    Dune: Parte dos (2024) AMZN WEB-DL 1080p Latino

    2h 47m 2024

    Descargar Dune: Parte dos (2024) AMZN WEB-DL 1080p Latino. Sigue el viaje mítico de Paul Atreides mientras...

    Director: Vera Janisch

    Género: Aventura

    Actores: Zouhair Elakkari

  • Godzilla vs. Kong (2021) REMUX 4K HDR Latino – CMHDD

    Godzilla vs. Kong (2021) REMUX 4K HDR Latino – CMHDD

    2021
    Godzilla vs. Kong (2021) REMUX 4K HDR Latino – CMHDD

    1h 54m 2021

    Godzilla y Kong, dos de las fuerzas más poderosas de un planeta habitado por todo tipo de aterradoras...

    Director: Thomas Robinson Harper

    Género: Acción

    Actores: Victoria Liu

  • Bumblebee (2018) REMUX 4K HDR Latino – CMHDD

    Bumblebee (2018) REMUX 4K HDR Latino – CMHDD

    2018
    Bumblebee (2018) REMUX 4K HDR Latino – CMHDD

    1h 54m 2018

    Sexta entrega de la saga 'Transformers', esta vez centrada en el "hermano pequeño" de los Autobots,...

    Director: Trisha Burton

    Género: Acción

    Actores: William W. Barbour

descargar Brainstorm (1983) REMUX 1080p Latino – CMHDD Full 1080p 1080p gratis, Brainstorm (1983) REMUX 1080p Latino – CMHDD Full 1080p mega 1 link, Brainstorm (1983) REMUX 1080p Latino – CMHDD Full 1080p pelicula completa, descargar Brainstorm (1983) REMUX 1080p Latino – CMHDD Full 1080p gratis en mega.

Brainstorm (1983) REMUX 1080p Latino – CMHDD pelicula full hd, Brainstorm (1983) REMUX 1080p Latino – CMHDD mega latino, Brainstorm (1983) REMUX 1080p Latino – CMHDD 4k latino, Brainstorm (1983) REMUX 1080p Latino – CMHDD pelicula completa, Brainstorm (1983) REMUX 1080p Latino – CMHDD descargar gratis, descargar Brainstorm (1983) REMUX 1080p Latino – CMHDD pelicula latino, Brainstorm (1983) REMUX 1080p Latino – CMHDD 1 link mega, Brainstorm (1983) REMUX 1080p Latino – CMHDD 1 link google drive, Brainstorm (1983) REMUX 1080p Latino – CMHDD hd 1080p latino.
Comentarios 0