×

¿Problemas para descargar con Mozilla, EDGE? Deshabilita la opción "Abrir vinculos en una pestaña nueva" tal como lo muestra ésta imagen.

Brahms: El niño II (2020) REMUX 1080p Latino

418 vistas

Información de Brahms: El niño II (2020) REMUX 1080p Latino

Datos de la película

  • Calidad: Full 1080p
  • Audio: Español Latino AC3 5.1 DVD - Ingles DTS 5.1 BLURAY
  • Subtitulos: Español Latino PGS - Ingles PGS
  • Resolución: 1920x1080p
  • Formato: MKV
  • Codec: H.264
  • Encoder: Melkor
  • Mediainfo: Clic para Mostrar Datos Ver
  • Brahms - El niño 2 (2020) REMUX 1080p Latino.mkv
    Format                      : Matroska
    Format version              : Version 4
    File size                   : 23.5 GiB
    Duration                    : 1 h 27 min
    Overall bit rate mode       : Variable
    Overall bit rate            : 38.7 Mb/s
    Movie name                  : Brahms The Boy II (2020) CinemaniaHDD.Net
    Encoded date                : UTC 2020-05-12 06:44:06
    Writing application         : mkvmerge v46.0.0 ('No Deeper Escape') 64-bit
    Writing library             : libebml v1.3.10 + libmatroska v1.5.2
    Attachments                 : CINEMANIAHD.png

    Video
    ID                          : 1
    Format                      : AVC
    Format/Info                 : Advanced Video Codec
    Format profile              : High@L4.1
    Format settings             : CABAC / 4 Ref Frames
    Format settings, CABAC      : Yes
    Format settings, Reference  : 4 frames
    Format settings, GOP        : M=3, N=12
    Codec ID                    : V_MPEG4/ISO/AVC
    Duration                    : 1 h 27 min
    Bit rate mode               : Variable
    Bit rate                    : 34.9 Mb/s
    Maximum bit rate            : 37.0 Mb/s
    Width                       : 1 920 pixels
    Height                      : 1 080 pixels
    Display aspect ratio        : 16:9
    Frame rate mode             : Constant
    Frame rate                  : 23.976 (24000/1001) FPS
    Color space                 : YUV
    Chroma subsampling          : 4:2:0
    Bit depth                   : 8 bits
    Scan type                   : Progressive
    Bits/(Pixel*Frame)          : 0.702
    Stream size                 : 21.2 GiB (90%)
    Title                       : REMUX 1080p [CinemaniaHDD]
    Default                     : Yes
    Forced                      : No

    Audio #1
    ID                          : 2
    Format                      : AC-3
    Format/Info                 : Audio Coding 3
    Commercial name             : Dolby Digital
    Codec ID                    : A_AC3
    Duration                    : 1 h 26 min
    Bit rate mode               : Constant
    Bit rate                    : 448 kb/s
    Channel(s)                  : 6 channels
    Channel layout              : L R C LFE Ls Rs
    Sampling rate               : 48.0 kHz
    Frame rate                  : 31.250 FPS (1536 SPF)
    Compression mode            : Lossy
    Stream size                 : 279 MiB (1%)
    Title                       : Español Latino [CinemaniaHDD]
    Language                    : Spanish
    Service kind                : Complete Main
    Default                     : Yes
    Forced                      : No

    Audio #2
    ID                          : 3
    Format                      : DTS XLL
    Format/Info                 : Digital Theater Systems
    Commercial name             : DTS-HD Master Audio
    Codec ID                    : A_DTS
    Duration                    : 1 h 27 min
    Bit rate mode               : Variable
    Bit rate                    : 3 334 kb/s
    Channel(s)                  : 6 channels
    Channel layout              : C L R Ls Rs LFE
    Sampling rate               : 48.0 kHz
    Frame rate                  : 93.750 FPS (512 SPF)
    Bit depth                   : 24 bits
    Compression mode            : Lossless
    Stream size                 : 2.03 GiB (9%)
    Title                       : Ingles [CinemaniaHDD]
    Language                    : English
    Default                     : No
    Forced                      : No

    Text #1
    ID                          : 4
    Format                      : PGS
    Muxing mode                 : zlib
    Codec ID                    : S_HDMV/PGS
    Codec ID/Info               : Picture based subtitle format used on BDs/HD-DVDs
    Duration                    : 1 h 24 min
    Bit rate                    : 24.9 kb/s
    Count of elements           : 1804
    Stream size                 : 15.1 MiB (0%)
    Title                       : Español-PGS [CinemaniaHDD]
    Language                    : Spanish
    Default                     : No
    Forced                      : No

    Text #2
    ID                          : 5
    Format                      : PGS
    Muxing mode                 : zlib
    Codec ID                    : S_HDMV/PGS
    Codec ID/Info               : Picture based subtitle format used on BDs/HD-DVDs
    Duration                    : 1 h 18 min
    Bit rate                    : 31.6 kb/s
    Count of elements           : 1875
    Stream size                 : 17.8 MiB (0%)
    Title                       : Ingles-PGS [CinemaniaHDD]
    Language                    : English
    Default                     : No
    Forced                      : No

    Text #3
    ID                          : 6
    Format                      : UTF-8
    Codec ID                    : S_TEXT/UTF8
    Codec ID/Info               : UTF-8 Plain Text
    Duration                    : 1 h 0 min
    Bit rate                    : 3 b/s
    Count of elements           : 55
    Stream size                 : 1.47 KiB (0%)
    Title                       : Forzados-SRT [CinemaniaHDD]
    Language                    : Spanish
    Default                     : Yes
    Forced                      : No

    Text #4
    ID                          : 7
    Format                      : UTF-8
    Codec ID                    : S_TEXT/UTF8
    Codec ID/Info               : UTF-8 Plain Text
    Duration                    : 1 h 18 min
    Bit rate                    : 38 b/s
    Count of elements           : 898
    Stream size                 : 22.2 KiB (0%)
    Title                       : Español-SRT [CinemaniaHDD]
    Language                    : Spanish
    Default                     : No
    Forced                      : No

    Menu
    00:00:00.000                : en:Chapter 01
    00:04:12.711                : en:Chapter 02
    00:10:29.128                : en:Chapter 03
    00:15:08.991                : en:Chapter 04
    00:19:32.838                : en:Chapter 05
    00:25:38.829                : en:Chapter 06
    00:30:39.046                : en:Chapter 07
    00:34:11.174                : en:Chapter 08
    00:39:19.232                : en:Chapter 09
    00:43:00.286                : en:Chapter 10
    00:46:27.660                : en:Chapter 11
    00:48:33.828                : en:Chapter 12
    00:54:01.405                : en:Chapter 13
    00:57:54.846                : en:Chapter 14
    01:03:06.491                : en:Chapter 15
    01:08:23.099                : en:Chapter 16
    01:11:29.785                : en:Chapter 17
    01:15:45.082                : en:Chapter 18
    01:18:14.648                : en:Chapter 19
    01:20:21.442                : en:Chapter 20

  • Peso: 23.5 GiB

Sinopsis

Descargar Brahms: El niño II (2020) REMUX 1080p Latino. Una joven familia se muda a una mansión sin ser conscientes de la aterradora historia que ha marcado su historial durante décadas. Allí, el miembro más joven de la familia hace un nuevo amigo: un muñeco con forma humana al que llama “Brahms”.

Ficha técnica

Video trailer de la película

Enlaces de descarga

Rip de Bluray

Descargar Brahms: El niño II (2020) REMUX 1080p Latino




Aportes de DPeliculasHDmega la pass es:dpeliculashdmega.org Aportes de CinemaniaHD la pass es:cinemaniahdd.com
Guardado en : Misterio , Remux , Suspenso , Terror

Películas relacionadas

descargar Brahms: El niño II (2020) REMUX 1080p Latino Full 1080p 1080p gratis, Brahms: El niño II (2020) REMUX 1080p Latino Full 1080p mega 1 link, Brahms: El niño II (2020) REMUX 1080p Latino Full 1080p pelicula completa, descargar Brahms: El niño II (2020) REMUX 1080p Latino Full 1080p gratis en mega.

Brahms: El niño II (2020) REMUX 1080p Latino pelicula full hd, Brahms: El niño II (2020) REMUX 1080p Latino mega latino, Brahms: El niño II (2020) REMUX 1080p Latino 4k latino, Brahms: El niño II (2020) REMUX 1080p Latino pelicula completa, Brahms: El niño II (2020) REMUX 1080p Latino descargar gratis, descargar Brahms: El niño II (2020) REMUX 1080p Latino pelicula latino, Brahms: El niño II (2020) REMUX 1080p Latino 1 link mega, Brahms: El niño II (2020) REMUX 1080p Latino 1 link google drive, Brahms: El niño II (2020) REMUX 1080p Latino hd 1080p latino.
Comentarios 0