×

¿Problemas para descargar con Mozilla, EDGE? Deshabilita la opción "Abrir vinculos en una pestaña nueva" tal como lo muestra ésta imagen.

Brahms: El niño II (2020) 1080p Latino

494 vistas

Información de Brahms: El niño II (2020) 1080p Latino

Datos de la película

  • Calidad: 1080p
  • Audio: Español Latino AC3 5.1 DVD - Ingles AC3 5.1 BLURAY
  • Subtitulos: Español Latino SRT - Ingles SRT
  • Resolución: 1920x804p
  • Formato: MKV
  • Codec: H.264
  • Encoder: CinemaniaHD
  • Mediainfo: Clic para Mostrar Datos Ver
  • Brahms - El niño 2 (2020) 1080p Latino.mkv
    Format                      : Matroska
    Format version              : Version 4
    File size                   : 2.64 GiB
    Duration                    : 1 h 27 min
    Overall bit rate            : 4 349 kb/s
    Movie name                  : Brahms The Boy II (2020) CinemaniaHDD.Net
    Encoded date                : UTC 2020-05-12 02:19:52
    Writing application         : mkvmerge v46.0.0 ('No Deeper Escape') 64-bit
    Writing library             : libebml v1.3.10 + libmatroska v1.5.2
    Attachments                 : CINEMANIAHD.png

    Video
    ID                          : 1
    Format                      : AVC
    Format/Info                 : Advanced Video Codec
    Format profile              : High@L4.1
    Format settings             : CABAC / 5 Ref Frames
    Format settings, CABAC      : Yes
    Format settings, Reference  : 5 frames
    Codec ID                    : V_MPEG4/ISO/AVC
    Duration                    : 1 h 27 min
    Bit rate                    : 3 500 kb/s
    Width                       : 1 920 pixels
    Height                      : 804 pixels
    Display aspect ratio        : 2.40:1
    Frame rate mode             : Constant
    Frame rate                  : 23.976 (24000/1001) FPS
    Color space                 : YUV
    Chroma subsampling          : 4:2:0
    Bit depth                   : 8 bits
    Scan type                   : Progressive
    Bits/(Pixel*Frame)          : 0.095
    Stream size                 : 2.10 GiB (79%)
    Title                       : HD1080p [CinemaniaHDD]
    Writing library             : x264 core 157 r2935 545de2f
    Encoding settings           : cabac=1 / ref=5 / deblock=1:-2:-2 / analyse=0x3:0x113 / me=hex / subme=8 / psy=1 / psy_rd=1.00:0.25 / mixed_ref=1 / me_range=16 / chroma_me=1 / trellis=2 / 8x8dct=1 / cqm=0 / deadzone=6,6 / fast_pskip=1 / chroma_qp_offset=-4 / threads=24 / lookahead_threads=4 / sliced_threads=0 / nr=0 / decimate=0 / interlaced=0 / bluray_compat=0 / constrained_intra=0 / bframes=3 / b_pyramid=2 / b_adapt=1 / b_bias=0 / direct=3 / weightb=1 / open_gop=0 / weightp=2 / keyint=240 / keyint_min=24 / scenecut=40 / intra_refresh=0 / rc_lookahead=50 / rc=abr / mbtree=1 / bitrate=3500 / ratetol=1.0 / qcomp=0.80 / qpmin=0 / qpmax=69 / qpstep=4 / vbv_maxrate=62500 / vbv_bufsize=78125 / nal_hrd=none / filler=0 / ip_ratio=1.10 / aq=1:0.50
    Default                     : Yes
    Forced                      : No
    Color range                 : Limited
    Color primaries             : BT.709
    Transfer characteristics    : BT.709
    Matrix coefficients         : BT.709

    Audio #1
    ID                          : 2
    Format                      : AC-3
    Format/Info                 : Audio Coding 3
    Commercial name             : Dolby Digital
    Codec ID                    : A_AC3
    Duration                    : 1 h 26 min
    Bit rate mode               : Constant
    Bit rate                    : 448 kb/s
    Channel(s)                  : 6 channels
    Channel layout              : L R C LFE Ls Rs
    Sampling rate               : 48.0 kHz
    Frame rate                  : 31.250 FPS (1536 SPF)
    Compression mode            : Lossy
    Delay relative to video     : -5 ms
    Stream size                 : 279 MiB (10%)
    Title                       : Español Latino [CinemaniaHDD]
    Language                    : Spanish
    Service kind                : Complete Main
    Default                     : Yes
    Forced                      : No

    Audio #2
    ID                          : 3
    Format                      : AC-3
    Format/Info                 : Audio Coding 3
    Commercial name             : Dolby Digital
    Codec ID                    : A_AC3
    Duration                    : 1 h 27 min
    Bit rate mode               : Constant
    Bit rate                    : 448 kb/s
    Channel(s)                  : 6 channels
    Channel layout              : L R C LFE Ls Rs
    Sampling rate               : 48.0 kHz
    Frame rate                  : 31.250 FPS (1536 SPF)
    Compression mode            : Lossy
    Delay relative to video     : -5 ms
    Stream size                 : 279 MiB (10%)
    Title                       : Ingles [CinemaniaHDD]
    Language                    : English
    Service kind                : Complete Main
    Default                     : No
    Forced                      : No

    Text #1
    ID                          : 4
    Format                      : UTF-8
    Codec ID                    : S_TEXT/UTF8
    Codec ID/Info               : UTF-8 Plain Text
    Duration                    : 1 h 0 min
    Bit rate                    : 3 b/s
    Count of elements           : 55
    Stream size                 : 1.47 KiB (0%)
    Title                       : Forzados-SRT [CinemaniaHDD]
    Language                    : Spanish
    Default                     : Yes
    Forced                      : No

    Text #2
    ID                          : 5
    Format                      : UTF-8
    Codec ID                    : S_TEXT/UTF8
    Codec ID/Info               : UTF-8 Plain Text
    Duration                    : 1 h 18 min
    Bit rate                    : 38 b/s
    Count of elements           : 898
    Stream size                 : 22.2 KiB (0%)
    Title                       : Español-SRT [CinemaniaHDD]
    Language                    : Spanish
    Default                     : No
    Forced                      : No

    Text #3
    ID                          : 6
    Format                      : UTF-8
    Codec ID                    : S_TEXT/UTF8
    Codec ID/Info               : UTF-8 Plain Text
    Duration                    : 1 h 18 min
    Bit rate                    : 43 b/s
    Count of elements           : 861
    Stream size                 : 24.8 KiB (0%)
    Title                       : Ingles-SRT [CinemaniaHDD]
    Language                    : English
    Default                     : No
    Forced                      : No

    Menu
    00:00:00.000                : :Chapter 1
    00:04:12.711                : :Chapter 2
    00:10:29.129                : :Chapter 3
    00:15:08.991                : :Chapter 4
    00:19:32.838                : :Chapter 5
    00:25:38.829                : :Chapter 6
    00:30:39.171                : :Chapter 7
    00:34:11.174                : :Chapter 8
    00:39:19.315                : :Chapter 9
    00:43:00.286                : :Chapter 10
    00:46:27.660                : :Chapter 11
    00:48:33.911                : :Chapter 12
    00:54:01.405                : :Chapter 13
    00:57:54.846                : :Chapter 14
    01:03:06.491                : :Chapter 15
    01:08:23.099                : :Chapter 16
    01:11:29.786                : :Chapter 17
    01:15:45.166                : :Chapter 18
    01:18:14.690                : :Chapter 19
    01:20:21.483                : :Chapter 20

  • Peso: 2.64 GiB

Sinopsis

Descargar Brahms: El niño II (2020) 1080p Latino. Una joven familia se muda a una mansión sin ser conscientes de la aterradora historia que ha marcado su historial durante décadas. Allí, el miembro más joven de la familia hace un nuevo amigo: un muñeco con forma humana al que llama “Brahms”.

Ficha técnica

Video trailer de la película

Enlaces de descarga

Rip de Bluray

Descargar Brahms: El niño II (2020) 1080p Latino




Aportes de DPeliculasHDmega la pass es:dpeliculashdmega.org Aportes de CinemaniaHD la pass es:cinemaniahdd.com
Guardado en : HD 1080p , Misterio , Suspenso , Terror

Películas relacionadas

descargar Brahms: El niño II (2020) 1080p Latino 1080p 1080p gratis, Brahms: El niño II (2020) 1080p Latino 1080p mega 1 link, Brahms: El niño II (2020) 1080p Latino 1080p pelicula completa, descargar Brahms: El niño II (2020) 1080p Latino 1080p gratis en mega.

Brahms: El niño II (2020) 1080p Latino pelicula full hd, Brahms: El niño II (2020) 1080p Latino mega latino, Brahms: El niño II (2020) 1080p Latino 4k latino, Brahms: El niño II (2020) 1080p Latino pelicula completa, Brahms: El niño II (2020) 1080p Latino descargar gratis, descargar Brahms: El niño II (2020) 1080p Latino pelicula latino, Brahms: El niño II (2020) 1080p Latino 1 link mega, Brahms: El niño II (2020) 1080p Latino 1 link google drive, Brahms: El niño II (2020) 1080p Latino hd 1080p latino.
Comentarios 0