×

¿Problemas para descargar con Mozilla, EDGE? Deshabilita la opción "Abrir vinculos en una pestaña nueva" tal como lo muestra ésta imagen.

Boyz n the Hood (1991) REMUX 4K HDR Latino – CMHDD

286 vistas

Información de Boyz n the Hood (1991) REMUX 4K HDR Latino – CMHDD

Datos de la película

  • Calidad: 4K HDR
  • Audio: Español Latino AC3 5.1 BLURAY - Ingles DTS 5.1 BLURAY
  • Subtitulos: Español Latino PGS
  • Resolución: 3840x2160p
  • Formato: MKV
  • Codec: HEVC
  • Encoder: Dracarys
  • Mediainfo: Clic para Mostrar Datos Ver
  • Format                      : Matroska
    Format version              : Version 4
    File size                   : 44.6 GiB
    Duration                    : 1 h 52 min
    Overall bit rate mode       : Variable
    Overall bit rate            : 56.9 Mb/s
    Movie name                  : Boyz n the Hood (1991) REMUX 4K HDR Latino - CMHDD
    Encoded date                : UTC 2021-03-15 20:23:43
    Writing application         : mkvmerge v51.0.0 ('I Wish') 64-bit
    Writing library             : libebml v1.4.0 + libmatroska v1.6.2
    Cover                       : Yes
    Attachments                 : cover.jpg

    Video
    ID                          : 1
    ID in the original source m : 4113 (0x1011)
    Format                      : HEVC
    Format/Info                 : High Efficiency Video Coding
    Format profile              : Main 10@L5.1@High
    HDR format                  : SMPTE ST 2086, HDR10 compatible
    Codec ID                    : V_MPEGH/ISO/HEVC
    Duration                    : 1 h 52 min
    Bit rate                    : 50.7 Mb/s
    Width                       : 3 840 pixels
    Height                      : 2 160 pixels
    Display aspect ratio        : 16:9
    Frame rate mode             : Constant
    Frame rate                  : 23.976 (24000/1001) FPS
    Color space                 : YUV
    Chroma subsampling          : 4:2:0 (Type 2)
    Bit depth                   : 10 bits
    Bits/(Pixel*Frame)          : 0.255
    Stream size                 : 39.7 GiB (89%)
    Default                     : Yes
    Forced                      : No
    Color range                 : Limited
    Color primaries             : BT.2020
    Transfer characteristics    : PQ
    Matrix coefficients         : BT.2020 non-constant
    Mastering display color pri : Display P3
    Mastering display luminance : min: 0.0050 cd/m2, max: 4000 cd/m2
    Maximum Content Light Level : 3991 cd/m2
    Maximum Frame-Average Light : 186 cd/m2
    Original source medium      : Blu-ray

    Audio #1
    ID                          : 2
    ID in the original source m : 4361 (0x1109)
    Format                      : AC-3
    Format/Info                 : Audio Coding 3
    Commercial name             : Dolby Digital
    Codec ID                    : A_AC3
    Duration                    : 1 h 52 min
    Bit rate mode               : Constant
    Bit rate                    : 640 kb/s
    Channel(s)                  : 6 channels
    Channel layout              : L R C LFE Ls Rs
    Sampling rate               : 48.0 kHz
    Frame rate                  : 31.250 FPS (1536 SPF)
    Compression mode            : Lossy
    Stream size                 : 513 MiB (1%)
    Language                    : Spanish
    Service kind                : Complete Main
    Default                     : Yes
    Forced                      : No
    Original source medium      : Blu-ray

    Audio #2
    ID                          : 3
    ID in the original source m : 4352 (0x1100)
    Format                      : MLP FBA 16-ch
    Format/Info                 : Meridian Lossless Packing FBA with 16-channel presentation
    Commercial name             : Dolby TrueHD with Dolby Atmos
    Codec ID                    : A_TRUEHD
    Duration                    : 1 h 52 min
    Bit rate mode               : Variable
    Bit rate                    : 3 264 kb/s
    Maximum bit rate            : 5 040 kb/s
    Channel(s)                  : 8 channels
    Channel layout              : L R C LFE Ls Rs Lb Rb
    Sampling rate               : 48.0 kHz
    Frame rate                  : 1 200.000 FPS (40 SPF)
    Compression mode            : Lossless
    Stream size                 : 2.56 GiB (6%)
    Language                    : English
    Default                     : No
    Forced                      : No
    Original source medium      : Blu-ray
    Number of dynamic objects   : 11
    Bed channel count           : 1 channel
    Bed channel configuration   : LFE

    Audio #3
    ID                          : 4
    ID in the original source m : 4353 (0x1101)
    Format                      : DTS XLL
    Format/Info                 : Digital Theater Systems
    Commercial name             : DTS-HD Master Audio
    Codec ID                    : A_DTS
    Duration                    : 1 h 52 min
    Bit rate mode               : Variable
    Bit rate                    : 2 195 kb/s
    Channel(s)                  : 6 channels
    Channel layout              : C L R Ls Rs LFE
    Sampling rate               : 48.0 kHz
    Frame rate                  : 93.750 FPS (512 SPF)
    Bit depth                   : 16 bits
    Compression mode            : Lossless
    Stream size                 : 1.72 GiB (4%)
    Language                    : English
    Default                     : No
    Forced                      : No
    Original source medium      : Blu-ray

    Text
    ID                          : 5
    ID in the original source m : 4785 (0x12B1)
    Format                      : PGS
    Muxing mode                 : zlib
    Codec ID                    : S_HDMV/PGS
    Codec ID/Info               : Picture based subtitle format used on BDs/HD-DVDs
    Duration                    : 1 h 48 min
    Bit rate                    : 29.4 kb/s
    Count of elements           : 2386
    Stream size                 : 22.7 MiB (0%)
    Language                    : Spanish
    Default                     : No
    Forced                      : No
    Original source medium      : Blu-ray

    Menu
    00:00:00.000                : en:Chapter 01
    00:06:55.957                : en:Chapter 02
    00:14:06.846                : en:Chapter 03
    00:20:13.837                : en:Chapter 04
    00:28:59.070                : en:Chapter 05
    00:37:52.395                : en:Chapter 06
    00:41:19.768                : en:Chapter 07
    00:49:49.152                : en:Chapter 08
    00:55:08.346                : en:Chapter 09
    01:01:43.491                : en:Chapter 10
    01:11:42.631                : en:Chapter 11
    01:17:50.499                : en:Chapter 12
    01:25:58.319                : en:Chapter 13
    01:32:34.090                : en:Chapter 14
    01:36:02.965                : en:Chapter 15
    01:42:23.804                : en:Chapter 16

  • Peso: 44.6 GiB

Sinopsis

Sorprendente debut del jovencísimo John Singleton -nominado al Oscar al mejor director con sólo 21 años- en un drama que cuenta la historia de tres amigos de la infancia que viven en un peligroso barrio de Los Ángeles. Los tres deberán enfrentarse a difíciles dilemas para abrirse camino en la vida.

Ficha técnica

Video trailer de la película

Enlaces de descarga

Rip de Bluray

Descargar Boyz n the Hood (1991) REMUX 4K HDR Latino – CMHDD


Aportes de DPeliculasHDmega la pass es:dpeliculashdmega.org Aportes de CinemaniaHD la pass es:cinemaniahdd.com
Guardado en : Drama

Películas relacionadas

descargar Boyz n the Hood (1991) REMUX 4K HDR Latino – CMHDD 4K HDR 1080p gratis, Boyz n the Hood (1991) REMUX 4K HDR Latino – CMHDD 4K HDR mega 1 link, Boyz n the Hood (1991) REMUX 4K HDR Latino – CMHDD 4K HDR pelicula completa, descargar Boyz n the Hood (1991) REMUX 4K HDR Latino – CMHDD 4K HDR gratis en mega.

Boyz n the Hood (1991) REMUX 4K HDR Latino – CMHDD pelicula full hd, Boyz n the Hood (1991) REMUX 4K HDR Latino – CMHDD mega latino, Boyz n the Hood (1991) REMUX 4K HDR Latino – CMHDD 4k latino, Boyz n the Hood (1991) REMUX 4K HDR Latino – CMHDD pelicula completa, Boyz n the Hood (1991) REMUX 4K HDR Latino – CMHDD descargar gratis, descargar Boyz n the Hood (1991) REMUX 4K HDR Latino – CMHDD pelicula latino, Boyz n the Hood (1991) REMUX 4K HDR Latino – CMHDD 1 link mega, Boyz n the Hood (1991) REMUX 4K HDR Latino – CMHDD 1 link google drive, Boyz n the Hood (1991) REMUX 4K HDR Latino – CMHDD hd 1080p latino.
Comentarios 0