Boyka: Undisputed IV (2017) 1080p Latino

3.444 vistas
1 estrella2 estrellas3 estrellas4 estrellas5 estrellas (1 votos, promedio: 5,00 de 5)
Cargando…

Información de Boyka: Undisputed IV (2017) 1080p Latino

Datos de la película

  • Calidad: 1080p
  • Audio: Español Latino AC3 5.1 iTUNES - Ingles AC3 5.1 BLURAY
  • Subtitulos: Español Latino SRT - Ingles SRT
  • Resolución: 1920x1036p
  • Formato: MKV
  • Codec: H.264
  • Encoder: Dpelis
  • Mediainfo: Clic para Mostrar Datos Ver
  • Boyka.undisputed.2016.1080p.Latino.mkv
    Format                      : Matroska
    Format version              : Version 4 / Version 2
    File size                   : 2.61 GiB
    Duration                    : 1 h 30 min
    Overall bit rate            : 4 122 kb/s
    Movie name                  : DPeliculasHDMega.ORG
    Encoded date                : UTC 2017-08-01 18:09:40 / UTC 2017-08-01T06:10:15Z
    Writing application         : mkvmerge v10.0.0 ('To Drown In You') 64bit
    Writing library             : libebml v1.3.4 + libmatroska v1.4.5 / Lavf57.7.2

    Video
    ID                          : 1
    Format                      : AVC
    Format/Info                 : Advanced Video Codec
    Format profile              : High@L4.1
    Format settings, CABAC      : Yes
    Format settings, ReFrames   : 4 frames
    Codec ID                    : V_MPEG4/ISO/AVC
    Duration                    : 1 h 30 min
    Bit rate                    : 3 272 kb/s
    Nominal bit rate            : 3 500 kb/s
    Width                       : 1 920 pixels
    Height                      : 1 036 pixels
    Display aspect ratio        : 1.85:1
    Frame rate mode             : Constant
    Frame rate                  : 23.976 (24000/1001) FPS
    Color space                 : YUV
    Chroma subsampling          : 4:2:0
    Bit depth                   : 8 bits
    Scan type                   : Progressive
    Bits/(Pixel*Frame)          : 0.069
    Stream size                 : 2.07 GiB (79%)
    Writing library             : x264 core 148 r2708 86b7198
    Encoding settings           : cabac=1 / ref=3 / deblock=1:0:0 / analyse=0x3:0x113 / me=hex / subme=7 / psy=1 / psy_rd=1.00:0.00 / mixed_ref=1 / me_range=16 / chroma_me=1 / trellis=1 / 8x8dct=1 / cqm=0 / deadzone=21,11 / fast_pskip=1 / chroma_qp_offset=-2 / threads=12 / lookahead_threads=2 / sliced_threads=0 / nr=0 / decimate=1 / interlaced=0 / bluray_compat=0 / constrained_intra=0 / bframes=3 / b_pyramid=2 / b_adapt=1 / b_bias=0 / direct=1 / weightb=1 / open_gop=0 / weightp=2 / keyint=240 / keyint_min=24 / scenecut=40 / intra_refresh=0 / rc_lookahead=40 / rc=abr / mbtree=1 / bitrate=3500 / ratetol=1.0 / qcomp=0.60 / qpmin=0 / qpmax=69 / qpstep=4 / vbv_maxrate=62500 / vbv_bufsize=78125 / nal_hrd=none / filler=0 / ip_ratio=1.40 / aq=1:1.00
    Default                     : Yes
    Forced                      : No
    Color range                 : Limited
    Color primaries             : BT.709
    Transfer characteristics    : BT.709
    Matrix coefficients         : BT.709
    Statistics Tags Issue       : mkvmerge v10.0.0 ('To Drown In You') 64bit 2017-08-01 18:09:40 / mkvmerge v10.0.0 ('To Drown In You') 64bit 2017-08-01 18:09:40 / UTC 2017-08-01T06:10:15Z
    FromStats_BitRate           : 3364060
    FromStats_Duration          : 01:30:11.406000000
    FromStats_FrameCount        : 129744
    FromStats_StreamSize        : 2275537371

    Audio #1
    ID                          : 2
    Format                      : AC-3
    Format/Info                 : Audio Coding 3
    Format settings, Endianness : Big
    Codec ID                    : A_AC3
    Duration                    : 1 h 30 min
    Bit rate mode               : Constant
    Bit rate                    : 384 kb/s
    Channel(s)                  : 6 channels
    Channel positions           : Front: L C R, Side: L R, LFE
    Sampling rate               : 48.0 kHz
    Frame rate                  : 31.250 FPS (1536 spf)
    Bit depth                   : 16 bits
    Compression mode            : Lossy
    Delay relative to video     : -5 ms
    Stream size                 : 248 MiB (9%)
    Language                    : Spanish
    Service kind                : Complete Main
    Default                     : No
    Forced                      : No
    Statistics Tags Issue       : mkvmerge v10.0.0 ('To Drown In You') 64bit 2017-08-01 18:09:40 / mkvmerge v10.0.0 ('To Drown In You') 64bit 2017-08-01 18:09:40 / UTC 2017-08-01T06:10:15Z
    FromStats_BitRate           : 384000
    FromStats_Duration          : 01:30:28.448000000
    FromStats_FrameCount        : 169639
    FromStats_StreamSize        : 260565504

    Audio #2
    ID                          : 3
    Format                      : AC-3
    Format/Info                 : Audio Coding 3
    Format settings, Endianness : Big
    Codec ID                    : A_AC3
    Duration                    : 1 h 30 min
    Bit rate mode               : Constant
    Bit rate                    : 384 kb/s
    Channel(s)                  : 6 channels
    Channel positions           : Front: L C R, Side: L R, LFE
    Sampling rate               : 48.0 kHz
    Frame rate                  : 31.250 FPS (1536 spf)
    Bit depth                   : 16 bits
    Compression mode            : Lossy
    Delay relative to video     : -5 ms
    Stream size                 : 248 MiB (9%)
    Title                       : Surround
    Language                    : English
    Service kind                : Complete Main
    Default                     : Yes
    Forced                      : No
    Statistics Tags Issue       : mkvmerge v10.0.0 ('To Drown In You') 64bit 2017-08-01 18:09:40 / mkvmerge v10.0.0 ('To Drown In You') 64bit 2017-08-01 18:09:40 / UTC 2017-08-01T06:10:15Z
    FromStats_BitRate           : 384000
    FromStats_Duration          : 01:30:11.392000000
    FromStats_FrameCount        : 169106
    FromStats_StreamSize        : 259746816

    Text #1
    ID                          : 4
    Format                      : UTF-8
    Codec ID                    : S_TEXT/UTF8
    Codec ID/Info               : UTF-8 Plain Text
    Language                    : German
    Default                     : Yes
    Forced                      : No
    Statistics Tags Issue       : mkvmerge v10.0.0 ('To Drown In You') 64bit 2017-08-01 18:09:40 / mkvmerge v10.0.0 ('To Drown In You') 64bit 2017-08-01 18:09:40 / UTC 2017-08-01T06:10:15Z
    FromStats_BitRate           : 30
    FromStats_Duration          : 01:25:56.523000000
    FromStats_FrameCount        : 702
    FromStats_StreamSize        : 19680

    Text #2
    ID                          : 5
    Format                      : UTF-8
    Codec ID                    : S_TEXT/UTF8
    Codec ID/Info               : UTF-8 Plain Text
    Language                    : English
    Default                     : No
    Forced                      : No
    Statistics Tags Issue       : mkvmerge v10.0.0 ('To Drown In You') 64bit 2017-08-01 18:09:40 / mkvmerge v10.0.0 ('To Drown In You') 64bit 2017-08-01 18:09:40 / UTC 2017-08-01T06:10:15Z
    FromStats_BitRate           : 31
    FromStats_Duration          : 01:24:07.837000000
    FromStats_FrameCount        : 618
    FromStats_StreamSize        : 20139

    Menu
    00:00:00.000                : :00:00:00.000
    00:05:36.002                : :00:05:35.961
    00:09:25.565                : :00:09:25.565
    00:15:05.279                : :00:15:05.279
    00:20:40.740                : :00:20:40.739
    00:24:04.693                : :00:24:04.693
    00:28:33.587                : :00:28:33.587
    00:33:22.042                : :00:33:22.042
    00:36:50.125                : :00:36:50.125
    00:40:19.626                : :00:40:19.626
    00:43:33.111                : :00:43:33.110
    00:49:52.364                : :00:49:52.281
    00:55:00.214                : :00:55:00.214
    01:00:25.455                : :01:00:25.455
    01:03:51.578                : :01:03:51.578
    01:09:06.059                : :01:09:06.059
    01:11:39.796                : :01:11:39.795
    01:16:58.656                : :01:16:58.656
    01:22:25.399                : :01:22:25.399
    01:26:35.190                : :01:26:35.148

  • Peso: 2.61 GB

Sinopsis

Ya se encuentra disponible la descarga de la pelicula Boyka: Undisputed IV hd latino En la cuarta entrega de la franquicia de combate, Boyka está rodando por las grandes ligas cuando una muerte accidental en el ring le hace cuestionar todo lo que representa.

Ficha técnica

  • Titulo original: Boyka: Undisputed IV
  • Fecha de lanzamiento: 18-04-2017 (Bulgaria, United States of America)
  • Director: Todor Chapkanov
  • Género: Acción
  • Puntuación: 5.0 1 votos
  • Duración:
    1h 30m

Video trailer de la película

Enlaces de descarga

Rip de Bluray

Descargar Boyka: Undisputed IV (2017) 1080p Latino




Aportes de DPeliculasHDmega la pass es:dpeliculashdmega.org Aportes de CinemaniaHD la pass es:cinemaniahdd.com
Guardado en : Acción

Películas relacionadas

  • Un hombre ordinario (2018) Web-DL 1080p Latino

    2017
    Un hombre ordinario (2018) Web-DL 1080p Latino

    0.0 1h 30m 2017

    Descargar Un hombre ordinario (2018) Web-DL 1080p Latino, Mega, Google Drive. Un criminal de guerra escondido...

    Director: Brad Silberling

    Género: Acción

    Actores: Vladimir Cvejić

  • El Justiciero 2 (2018) Full 1080p Latino

    2018
    El Justiciero 2 (2018) Full 1080p Latino

    5.0 2h 0m 2018

    Descargar El Justiciero 2 (2018) Full 1080p Latino, Mega, Google Drive. Robert McCall (Denzel Washington)...

    Director: Donald Sparks

    Género: Acción

    Actores: Wesley Pereira

Comentarios 9
  • Luis - 02 agosto, 2017

    Disculpe, por que casi ya no suben versiones WEBDL? por ejemplo como esta.

    De ante mano muchas gracias por su contenido, es de muy buena calidad, gracias.

    • dpelis - 02 agosto, 2017

      esta no valia la pena el webdl

  • gaston - 01 agosto, 2017

    Gracias la estaba esperando ,en la mejor calidad en audio latino q solo ustedes pueden!
    Saldrá en gris pronto?

  • geronimo - 01 agosto, 2017

    super

  • seba - 01 agosto, 2017

    que gran aporte !!!!

    subiran la saga completa ???

    • dpelis - 01 agosto, 2017

      umm ya lo pensare

  • Jairo - 01 agosto, 2017

    Muchas gracias por subirla, cuando la tendrian con la carcaza gris?

    • dpelis - 01 agosto, 2017

      la subire con audio itunes 5.1 porq por el momento no hay bluray latino a mas tarda manana la tarde

      • Jairo - 02 agosto, 2017

        Ok! 🙂 gracias por responder. Muy buenos todos sus aportes.