×

¿Problemas para descargar con Mozilla, EDGE? Deshabilita la opción "Abrir vinculos en una pestaña nueva" tal como lo muestra ésta imagen.

Bosque Adentro (2020) Temporada 1 NF WEB-DL 1080p Latino

263 vistas

Información de Bosque Adentro (2020) Temporada 1 NF WEB-DL 1080p Latino

Datos de la película

  • Calidad:
  • Audio: Español Latino AC3 5.1 Netflix - Ingles AC3 5.1 Netflix
  • Subtitulos: Español Latino SRT- FORZADOS SRT
  • Resolución: 1920x1080
  • Formato: MKV
  • Codec: H.264
  • Encoder: cinemaniahdd
  • Mediainfo: Clic para Mostrar Datos Ver
  • Bosque Adentro T01E01 NF WEB-DL 1080p Latino [CNMNHDD].mkv
    Format                      : Matroska
    Format version              : Version 4
    File size                   : 2.08 GiB
    Duration                    : 54 min 22 s
    Overall bit rate mode       : Variable
    Overall bit rate            : 5 482 kb/s
    Movie name                  : Bosque Adentro T01E01 - CinemaniaHDD.Net
    Encoded date                : UTC 2020-07-13 16:41:52
    Writing application         : mkvmerge v30.1.0 ('Forever And More') 64-bit
    Writing library             : libebml v1.3.6 + libmatroska v1.4.9 / Lavf58.28.101

    Video
    ID                          : 1
    Format                      : AVC
    Format/Info                 : Advanced Video Codec
    Format profile              : Main@L4
    Format settings             : CABAC / 3 Ref Frames
    Format settings, CABAC      : Yes
    Format settings, Reference  : 3 frames
    Codec ID                    : V_MPEG4/ISO/AVC
    Duration                    : 54 min 22 s
    Bit rate mode               : Variable
    Bit rate                    : 4 870 kb/s
    Maximum bit rate            : 7 305 kb/s
    Width                       : 1 920 pixels
    Height                      : 1 080 pixels
    Display aspect ratio        : 16:9
    Frame rate mode             : Constant
    Frame rate                  : 24.000 FPS
    Color space                 : YUV
    Chroma subsampling          : 4:2:0
    Bit depth                   : 8 bits
    Scan type                   : Progressive
    Bits/(Pixel*Frame)          : 0.098
    Stream size                 : 1.79 GiB (86%)
    Title                       : CinemaniaHDD.Net
    Writing library             : x264 core 148 r2721 6d200cf
    Encoding settings           : cabac=1 / ref=3 / deblock=1:0:0 / analyse=0x1:0x111 / me=umh / subme=10 / psy=1 / psy_rd=1.00:0.00 / mixed_ref=1 / me_range=24 / chroma_me=1 / trellis=2 / 8x8dct=0 / cqm=0 / deadzone=21,11 / fast_pskip=1 / chroma_qp_offset=-2 / threads=6 / lookahead_threads=1 / sliced_threads=0 / nr=0 / decimate=1 / interlaced=0 / bluray_compat=0 / stitchable=1 / constrained_intra=0 / bframes=2 / b_pyramid=0 / b_adapt=2 / b_bias=0 / direct=3 / weightb=1 / open_gop=0 / weightp=2 / keyint=250 / keyint_min=24 / scenecut=0 / intra_refresh=0 / rc_lookahead=48 / rc=2pass / mbtree=1 / bitrate=4870 / ratetol=1.0 / qcomp=0.50 / qpmin=6 / qpmax=51 / qpstep=4 / cplxblur=20.0 / qblur=0.5 / vbv_maxrate=7305 / vbv_bufsize=9740 / nal_hrd=vbr / filler=0 / ip_ratio=1.40 / aq=1:1.00
    Default                     : Yes
    Forced                      : No

    Audio #1
    ID                          : 2
    Format                      : AC-3
    Format/Info                 : Audio Coding 3
    Commercial name             : Dolby Digital
    Codec ID                    : A_AC3
    Duration                    : 54 min 22 s
    Bit rate mode               : Constant
    Bit rate                    : 384 kb/s
    Channel(s)                  : 6 channels
    Channel layout              : L R C LFE Ls Rs
    Sampling rate               : 48.0 kHz
    Frame rate                  : 31.250 FPS (1536 SPF)
    Compression mode            : Lossy
    Stream size                 : 149 MiB (7%)
    Title                       : Español latino [CinemaniaHDD]
    Language                    : Spanish
    Service kind                : Complete Main
    Default                     : Yes
    Forced                      : No

    Audio #2
    ID                          : 3
    Format                      : AC-3
    Format/Info                 : Audio Coding 3
    Commercial name             : Dolby Digital
    Codec ID                    : A_AC3
    Duration                    : 54 min 22 s
    Bit rate mode               : Constant
    Bit rate                    : 384 kb/s
    Channel(s)                  : 6 channels
    Channel layout              : L R C LFE Ls Rs
    Sampling rate               : 48.0 kHz
    Frame rate                  : 31.250 FPS (1536 SPF)
    Compression mode            : Lossy
    Stream size                 : 149 MiB (7%)
    Title                       : Inglés [CinemaniaHDD]
    Language                    : English
    Service kind                : Complete Main
    Default                     : No
    Forced                      : No

  • Peso: 2.08 GiB C/U APROX...

Sinopsis

La evidencia encontrada en el cadáver de una víctima de homicidio le da esperanzas a un fiscal de que su hermana, desaparecida desde hace 25 años, podría estar viva.

Ficha técnica

Video trailer de la película

Enlaces de descarga

Rip de Bluray

Descargar Bosque Adentro (2020) Temporada 1 NF WEB-DL 1080p Latino




Aportes de DPeliculasHDmega la pass es:dpeliculashdmega.org Aportes de CinemaniaHD la pass es:cinemaniahdd.com
Guardado en : Drama , Misterio , Netflix , Series

Películas relacionadas

descargar Bosque Adentro (2020) Temporada 1 NF WEB-DL 1080p Latino 1080p gratis, Bosque Adentro (2020) Temporada 1 NF WEB-DL 1080p Latino mega 1 link, Bosque Adentro (2020) Temporada 1 NF WEB-DL 1080p Latino serie completa, descargar Bosque Adentro (2020) Temporada 1 NF WEB-DL 1080p Latino gratis en mega.

Bosque Adentro (2020) Temporada 1 NF WEB-DL 1080p Latino pelicula full hd, Bosque Adentro (2020) Temporada 1 NF WEB-DL 1080p Latino mega latino, Bosque Adentro (2020) Temporada 1 NF WEB-DL 1080p Latino 4k latino, Bosque Adentro (2020) Temporada 1 NF WEB-DL 1080p Latino pelicula completa, Bosque Adentro (2020) Temporada 1 NF WEB-DL 1080p Latino descargar gratis, descargar Bosque Adentro (2020) Temporada 1 NF WEB-DL 1080p Latino pelicula latino, Bosque Adentro (2020) Temporada 1 NF WEB-DL 1080p Latino 1 link mega, Bosque Adentro (2020) Temporada 1 NF WEB-DL 1080p Latino 1 link google drive, Bosque Adentro (2020) Temporada 1 NF WEB-DL 1080p Latino hd 1080p latino.
Comentarios 0