×

¿Problemas para descargar con Mozilla, EDGE? Deshabilita la opción "Abrir vinculos en una pestaña nueva" tal como lo muestra ésta imagen.

Bosch: Legacy (2022) Primera Temporada AMZN WEB-DL 1080p Latino

105 vistas

Información de Bosch: Legacy (2022) Primera Temporada AMZN WEB-DL 1080p Latino

Datos de la película

  • Calidad: 1080p
  • Audio: Español Latino AC3 5.1 WEB-DL - Ingles AC3 5.1 WEB-DL
  • Subtitulos: Español Latino SRT- FORZADOS SRT
  • Resolución: 1920x1080
  • Formato: MKV
  • Codec: H.264
  • Encoder: cinemaniahdd
  • Mediainfo: Clic para Mostrar Datos Ver
  • Bosch Legacy T01E01 AMZN WEB-DL 1080p Latino [CNMNHDD].mkv
    Format                      : Matroska
    Format version              : Version 4
    File size                   : 3.51 GiB
    Duration                    : 54 min 48 s
    Overall bit rate            : 9 166 kb/s
    Movie name                  : Bosch Legacy S01E01 - The Wrong Side of Goodbye [1080p] - CinemaniaHDD.Net
    Encoded date                : UTC 2023-10-21 01:28:34
    Writing application         : mkvmerge v56.1.0 ('My Friend') 64-bit
    Writing library             : libebml v1.4.2 + libmatroska v1.6.4

    Video
    ID                          : 1
    Format                      : AVC
    Format/Info                 : Advanced Video Codec
    Format profile              : High@L4
    Format settings             : CABAC / 4 Ref Frames
    Format settings, CABAC      : Yes
    Format settings, Reference  : 4 frames
    Codec ID                    : V_MPEG4/ISO/AVC
    Duration                    : 54 min 48 s
    Bit rate mode               : Constant
    Bit rate                    : 7 243 kb/s
    Nominal bit rate            : 10 000 kb/s
    Width                       : 1 920 pixels
    Height                      : 1 080 pixels
    Display aspect ratio        : 16:9
    Frame rate mode             : Constant
    Frame rate                  : 24.000 FPS
    Color space                 : YUV
    Chroma subsampling          : 4:2:0
    Bit depth                   : 8 bits
    Scan type                   : Progressive
    Bits/(Pixel*Frame)          : 0.146
    Stream size                 : 2.77 GiB (79%)
    Title                       : CinemaniaHDD
    Default                     : Yes
    Forced                      : No
    Color range                 : Limited
    Color primaries             : BT.709
    Transfer characteristics    : BT.709
    Matrix coefficients         : BT.709

    Audio #1
    ID                          : 2
    Format                      : AC-3
    Format/Info                 : Audio Coding 3
    Commercial name             : Dolby Digital
    Codec ID                    : A_AC3
    Duration                    : 54 min 48 s
    Bit rate mode               : Constant
    Bit rate                    : 640 kb/s
    Channel(s)                  : 6 channels
    Channel layout              : L R C LFE Ls Rs
    Sampling rate               : 48.0 kHz
    Frame rate                  : 31.250 FPS (1536 SPF)
    Compression mode            : Lossy
    Stream size                 : 251 MiB (7%)
    Title                       : Español Latino [CinemaniaHDD]
    Language                    : Spanish
    Service kind                : Complete Main
    Default                     : Yes
    Forced                      : No

    Audio #2
    ID                          : 3
    Format                      : E-AC-3
    Format/Info                 : Enhanced AC-3
    Commercial name             : Dolby Digital Plus
    Codec ID                    : A_EAC3
    Duration                    : 54 min 48 s
    Bit rate mode               : Constant
    Bit rate                    : 640 kb/s
    Channel(s)                  : 6 channels
    Channel layout              : L R C LFE Ls Rs
    Sampling rate               : 48.0 kHz
    Frame rate                  : 31.250 FPS (1536 SPF)
    Compression mode            : Lossy
    Stream size                 : 251 MiB (7%)
    Title                       : Español latino / E-AC3 [CinemaniaHDD]
    Language                    : Spanish
    Service kind                : Complete Main
    Default                     : No
    Forced                      : No

    Audio #3
    ID                          : 4
    Format                      : E-AC-3
    Format/Info                 : Enhanced AC-3
    Commercial name             : Dolby Digital Plus
    Codec ID                    : A_EAC3
    Duration                    : 54 min 48 s
    Bit rate mode               : Constant
    Bit rate                    : 640 kb/s
    Channel(s)                  : 6 channels
    Channel layout              : L R C LFE Ls Rs
    Sampling rate               : 48.0 kHz
    Frame rate                  : 31.250 FPS (1536 SPF)
    Compression mode            : Lossy
    Stream size                 : 251 MiB (7%)
    Title                       : Inglés [CinemaniaHDD]
    Language                    : English
    Service kind                : Complete Main
    Default                     : No
    Forced                      : No

    Text #1
    ID                          : 5
    Format                      : UTF-8
    Codec ID                    : S_TEXT/UTF8
    Codec ID/Info               : UTF-8 Plain Text
    Duration                    : 23 min 52 s
    Bit rate                    : 1 b/s
    Count of elements           : 7
    Stream size                 : 284 Bytes (0%)
    Title                       : Forzados [CinemaniaHDD]
    Language                    : Spanish
    Default                     : Yes
    Forced                      : Yes

    Text #2
    ID                          : 6
    Format                      : UTF-8
    Codec ID                    : S_TEXT/UTF8
    Codec ID/Info               : UTF-8 Plain Text
    Duration                    : 53 min 53 s
    Bit rate                    : 65 b/s
    Count of elements           : 757
    Stream size                 : 25.7 KiB (0%)
    Title                       : Español Latino [CinemaniaHDD]
    Language                    : Spanish
    Default                     : No
    Forced                      : No

    Text #3
    ID                          : 7
    Format                      : UTF-8
    Codec ID                    : S_TEXT/UTF8
    Codec ID/Info               : UTF-8 Plain Text
    Duration                    : 52 min 31 s
    Bit rate                    : 77 b/s
    Count of elements           : 946
    Stream size                 : 29.8 KiB (0%)
    Title                       : Inglés [CinemaniaHDD]
    Language                    : English
    Default                     : No
    Forced                      : No

     

  • Peso: 3.51 GiB Aprox ---- 32 GiB in 10 Chapters.

Sinopsis

Harry Bosch, un detective de homicidios retirado se convierte en investigador privado, lucha para resolver casos sin la autoridad que le otorgaba su trabajo anterior. La abogada Honey «La fiera» Chandler, quien sobrevivió a un intento de asesinato, lucha por mantener su fe en el sistema judicial. Y Maddie descubre las posibilidades y desafíos de ser una policía novata en las calles de Los Ángeles.

Ficha técnica

Video trailer de la película

Enlaces de descarga

Rip de Bluray

Descargar Bosch: Legacy (2022) Primera Temporada AMZN WEB-DL 1080p Latino




Aportes de DPeliculasHDmega la pass es:dpeliculashdmega.org Aportes de CinemaniaHD la pass es:cinemaniahdd.com Aportes recientes:cinemaniahdd.net
Guardado en : Crimen , Drama , Series

Películas relacionadas

descargar Bosch: Legacy (2022) Primera Temporada AMZN WEB-DL 1080p Latino 1080p 1080p gratis, Bosch: Legacy (2022) Primera Temporada AMZN WEB-DL 1080p Latino 1080p mega 1 link, Bosch: Legacy (2022) Primera Temporada AMZN WEB-DL 1080p Latino 1080p serie completa, descargar Bosch: Legacy (2022) Primera Temporada AMZN WEB-DL 1080p Latino 1080p gratis en mega.

Bosch: Legacy (2022) Primera Temporada AMZN WEB-DL 1080p Latino pelicula full hd, Bosch: Legacy (2022) Primera Temporada AMZN WEB-DL 1080p Latino mega latino, Bosch: Legacy (2022) Primera Temporada AMZN WEB-DL 1080p Latino 4k latino, Bosch: Legacy (2022) Primera Temporada AMZN WEB-DL 1080p Latino pelicula completa, Bosch: Legacy (2022) Primera Temporada AMZN WEB-DL 1080p Latino descargar gratis, descargar Bosch: Legacy (2022) Primera Temporada AMZN WEB-DL 1080p Latino pelicula latino, Bosch: Legacy (2022) Primera Temporada AMZN WEB-DL 1080p Latino 1 link mega, Bosch: Legacy (2022) Primera Temporada AMZN WEB-DL 1080p Latino 1 link google drive, Bosch: Legacy (2022) Primera Temporada AMZN WEB-DL 1080p Latino hd 1080p latino.
Comentarios 0