×

¿Problemas para descargar con Mozilla, EDGE? Deshabilita la opción "Abrir vinculos en una pestaña nueva" tal como lo muestra ésta imagen.

Bosch (2021) Septima Temporada AMZN WEB-DL 1080p Latino

265 vistas

Información de Bosch (2021) Septima Temporada AMZN WEB-DL 1080p Latino

Datos de la película

  • Calidad: Full 1080p
  • Audio: Español Latino E-AC3 5.1 AMAZON - Ingles E-AC3 5.1 AMAZON
  • Subtitulos: Español Latino SRT- FORZADOS SRT
  • Resolución: 1920x1080
  • Formato: MKV
  • Codec: H.264
  • Encoder: cinemaniahdd
  • Mediainfo: Clic para Mostrar Datos Ver
  • Bosch T07E01 AMZN WEB-DL 1080p Latino [CNMNHDD].mkv
    Format                      : Matroska
    Format version              : Version 4
    File size                   : 3.11 GiB
    Duration                    : 42 min 40 s
    Overall bit rate            : 10.4 Mb/s
    Movie name                  : Bosch T07E01 - CinemaniaHDD.Net
    Encoded date                : UTC 2021-06-26 03:15:05
    Writing application         : mkvmerge v56.1.0 ('My Friend') 64-bit
    Writing library             : libebml v1.4.2 + libmatroska v1.6.4

    Video
    ID                          : 1
    Format                      : AVC
    Format/Info                 : Advanced Video Codec
    Format profile              : High@L4
    Format settings             : CABAC / 4 Ref Frames
    Format settings, CABAC      : Yes
    Format settings, Reference  : 4 frames
    Codec ID                    : V_MPEG4/ISO/AVC
    Duration                    : 42 min 40 s
    Bit rate mode               : Constant
    Bit rate                    : 8 520 kb/s
    Nominal bit rate            : 10 000 kb/s
    Width                       : 1 920 pixels
    Height                      : 1 080 pixels
    Display aspect ratio        : 16:9
    Frame rate mode             : Constant
    Frame rate                  : 23.976 (24000/1001) FPS
    Color space                 : YUV
    Chroma subsampling          : 4:2:0
    Bit depth                   : 8 bits
    Scan type                   : Progressive
    Bits/(Pixel*Frame)          : 0.171
    Stream size                 : 2.54 GiB (82%)
    Title                       : CinemaniaHDD
    Default                     : Yes
    Forced                      : No
    Color range                 : Limited
    Color primaries             : BT.709
    Transfer characteristics    : BT.709
    Matrix coefficients         : BT.709

    Audio #1
    ID                          : 2
    Format                      : AC-3
    Format/Info                 : Audio Coding 3
    Commercial name             : Dolby Digital
    Codec ID                    : A_AC3
    Duration                    : 42 min 40 s
    Bit rate mode               : Constant
    Bit rate                    : 640 kb/s
    Channel(s)                  : 6 channels
    Channel layout              : L R C LFE Ls Rs
    Sampling rate               : 48.0 kHz
    Frame rate                  : 31.250 FPS (1536 SPF)
    Compression mode            : Lossy
    Stream size                 : 195 MiB (6%)
    Title                       : Español latino [CinemaniaHDD]
    Language                    : Spanish
    Service kind                : Complete Main
    Default                     : Yes
    Forced                      : No

    Audio #2
    ID                          : 3
    Format                      : E-AC-3
    Format/Info                 : Enhanced AC-3
    Commercial name             : Dolby Digital Plus
    Codec ID                    : A_EAC3
    Duration                    : 42 min 40 s
    Bit rate mode               : Constant
    Bit rate                    : 640 kb/s
    Channel(s)                  : 6 channels
    Channel layout              : L R C LFE Ls Rs
    Sampling rate               : 48.0 kHz
    Frame rate                  : 31.250 FPS (1536 SPF)
    Compression mode            : Lossy
    Stream size                 : 195 MiB (6%)
    Title                       : Inglés [CinemaniaHDD]
    Language                    : English
    Service kind                : Complete Main
    Default                     : No
    Forced                      : No

    Audio #3
    ID                          : 4
    Format                      : E-AC-3
    Format/Info                 : Enhanced AC-3
    Commercial name             : Dolby Digital Plus
    Codec ID                    : A_EAC3
    Duration                    : 42 min 40 s
    Bit rate mode               : Constant
    Bit rate                    : 640 kb/s
    Channel(s)                  : 6 channels
    Channel layout              : L R C LFE Ls Rs
    Sampling rate               : 48.0 kHz
    Frame rate                  : 31.250 FPS (1536 SPF)
    Compression mode            : Lossy
    Stream size                 : 195 MiB (6%)
    Language                    : English
    Service kind                : Complete Main
    Default                     : No
    Forced                      : No

    Text #1
    ID                          : 5
    Format                      : UTF-8
    Codec ID                    : S_TEXT/UTF8
    Codec ID/Info               : UTF-8 Plain Text
    Duration                    : 32 min 42 s
    Bit rate                    : 0 b/s
    Count of elements           : 7
    Stream size                 : 215 Bytes (0%)
    Title                       : Forzados [CinemaniaHDD]
    Language                    : Spanish
    Default                     : Yes
    Forced                      : Yes

    Text #2
    ID                          : 6
    Format                      : UTF-8
    Codec ID                    : S_TEXT/UTF8
    Codec ID/Info               : UTF-8 Plain Text
    Duration                    : 42 min 24 s
    Bit rate                    : 65 b/s
    Count of elements           : 660
    Stream size                 : 20.4 KiB (0%)
    Title                       : Español latino [CinemaniaHDD]
    Language                    : Spanish
    Default                     : No
    Forced                      : No

    Text #3
    ID                          : 7
    Format                      : UTF-8
    Codec ID                    : S_TEXT/UTF8
    Codec ID/Info               : UTF-8 Plain Text
    Duration                    : 40 min 33 s
    Bit rate                    : 73 b/s
    Count of elements           : 758
    Stream size                 : 21.7 KiB (0%)
    Title                       : Inglés [CC] [CinemaniaHDD]
    Language                    : English
    Default                     : No
    Forced                      : No

    Menu
    00:00:00.000                : Amazon Original
    00:00:05.000                : Previously On
    00:04:37.000                : Scene 3
    00:09:13.000                : Scene 4
    00:10:38.000                : Opening Credits
    00:11:37.000                : Scene 6
    00:15:25.000                : Scene 7
    00:17:33.000                : Scene 8
    00:19:20.000                : Scene 9
    00:24:22.000                : Scene 10
    00:29:12.000                : Scene 11
    00:31:04.000                : Scene 12
    00:32:53.000                : Scene 13
    00:34:54.000                : Scene 14
    00:36:43.000                : Scene 15
    00:40:01.000                : Scene 16
    00:41:06.000                : End Credits

     

  • Peso: 3.11 GiB c/u Aprox ---- 25 GiB in 8 Chapters.

Sinopsis

Una niña muere en un incendio provocado Y el detective Harry Bosch lo arriesga todo para llevar al asesino ante la justicia, a pesar de la oposición de fuerzas influyentes. El detective Jerry Edgar se derrumba al afrontar las consecuencias de haber matado a Jacques Avril. Maddie ayuda a Honey Chandler en un caso mediático que afecta a Bosch y las pone en el punto de mira de peligrosos criminales.

Ficha técnica

Video trailer de la película

Enlaces de descarga

Rip de Bluray

Descargar Bosch (2021) Septima Temporada AMZN WEB-DL 1080p Latino




Aportes de DPeliculasHDmega la pass es:dpeliculashdmega.org Aportes de CinemaniaHD la pass es:cinemaniahdd.com
Guardado en : Crimen , Drama , Misterio , Series

Películas relacionadas

  • El discurso del Rey (2010) 1080p Latino

    El discurso del Rey (2010) 1080p Latino

    2010
    El discurso del Rey (2010) 1080p Latino

    1h 58m 2010

    Descargar El discurso del Rey (2010) 1080p Latino. El duque de York se convirtió en rey de Gran Bretaña...

    Director: Tom Hooper

    Género: Drama

    Actores: Tony Earnshaw

  • El discurso del Rey (2010) Full HD 1080p Latino

    El discurso del Rey (2010) Full HD 1080p Latino

    2010
    El discurso del Rey (2010) Full HD 1080p Latino

    1h 58m 2010

    Descargar El discurso del Rey (2010) Full HD 1080p Latino. El duque de York se convirtió en rey de Gran...

    Director: Tom Hooper

    Género: Drama

    Actores: Tony Earnshaw

  • El discurso del Rey (2010) REMUX 1080p Latino

    El discurso del Rey (2010) REMUX 1080p Latino

    2010
    El discurso del Rey (2010) REMUX 1080p Latino

    1h 58m 2010

    Descargar El discurso del Rey (2010) REMUX 1080p Latino. El duque de York se convirtió en rey de Gran...

    Director: Tom Hooper

    Género: Drama

    Actores: Tony Earnshaw

  • 8 Mile (2002) REMUX 4K HDR Latino – CMHDD

    8 Mile (2002) REMUX 4K HDR Latino – CMHDD

    2002
    8 Mile (2002) REMUX 4K HDR Latino – CMHDD

    1h 50m 2002

    Detroit, 1995. La promesa de potencia industrial se ha transformado en un hervidero de conflictos económicos...

    Director: Michael J. Moore

    Género: Drama

    Actores: Xzibit

descargar Bosch (2021) Septima Temporada AMZN WEB-DL 1080p Latino Full 1080p 1080p gratis, Bosch (2021) Septima Temporada AMZN WEB-DL 1080p Latino Full 1080p mega 1 link, Bosch (2021) Septima Temporada AMZN WEB-DL 1080p Latino Full 1080p serie completa, descargar Bosch (2021) Septima Temporada AMZN WEB-DL 1080p Latino Full 1080p gratis en mega.

Bosch (2021) Septima Temporada AMZN WEB-DL 1080p Latino pelicula full hd, Bosch (2021) Septima Temporada AMZN WEB-DL 1080p Latino mega latino, Bosch (2021) Septima Temporada AMZN WEB-DL 1080p Latino 4k latino, Bosch (2021) Septima Temporada AMZN WEB-DL 1080p Latino pelicula completa, Bosch (2021) Septima Temporada AMZN WEB-DL 1080p Latino descargar gratis, descargar Bosch (2021) Septima Temporada AMZN WEB-DL 1080p Latino pelicula latino, Bosch (2021) Septima Temporada AMZN WEB-DL 1080p Latino 1 link mega, Bosch (2021) Septima Temporada AMZN WEB-DL 1080p Latino 1 link google drive, Bosch (2021) Septima Temporada AMZN WEB-DL 1080p Latino hd 1080p latino.
Comentarios 0