×

¿Problemas para descargar con Mozilla, EDGE? Deshabilita la opción "Abrir vinculos en una pestaña nueva" tal como lo muestra ésta imagen.

Bosch (2020) Sexta Temporadas AMZN WEB-DL 1080p Latino

345 vistas

Información de Bosch (2020) Sexta Temporadas AMZN WEB-DL 1080p Latino

Datos de la película

  • Calidad: WEBDL
  • Audio: Español Latino E-AC3 5.1 AMAZON - Ingles E-AC3 5.1 AMAZON
  • Subtitulos: Español Latino SRT- FORZADOS SRT
  • Resolución: 1920x1080
  • Formato: MKV
  • Codec: H.264
  • Encoder: cinemaniahdd
  • Mediainfo: Clic para Mostrar Datos Ver
  • Bosch [T06E01] (2020) Temporada 6 [AMZN] WEB-DL 1080p Latino - CMHDD.mkv
    Format                      : Matroska
    Format version              : Version 4
    File size                   : 3.40 GiB
    Duration                    : 48 min 15 s
    Overall bit rate            : 10.1 Mb/s
    Movie name                  : Bosch T06E01 - CinemaniaHDD.Net
    Encoded date                : UTC 2020-11-10 18:48:13
    Writing application         : mkvmerge v51.0.0 ('I Wish') 64-bit
    Writing library             : libebml v1.4.0 + libmatroska v1.6.2

    Video
    ID                          : 1
    Format                      : AVC
    Format/Info                 : Advanced Video Codec
    Format profile              : High@L4
    Format settings             : CABAC / 4 Ref Frames
    Format settings, CABAC      : Yes
    Format settings, Reference  : 4 frames
    Codec ID                    : V_MPEG4/ISO/AVC
    Duration                    : 48 min 15 s
    Bit rate mode               : Constant
    Bit rate                    : 8 808 kb/s
    Nominal bit rate            : 10 000 kb/s
    Width                       : 1 920 pixels
    Height                      : 1 080 pixels
    Display aspect ratio        : 16:9
    Frame rate mode             : Constant
    Frame rate                  : 23.976 (24000/1001) FPS
    Color space                 : YUV
    Chroma subsampling          : 4:2:0
    Bit depth                   : 8 bits
    Scan type                   : Progressive
    Bits/(Pixel*Frame)          : 0.177
    Stream size                 : 2.97 GiB (87%)
    Title                       : CinemaniaHDD
    Default                     : Yes
    Forced                      : No
    Color range                 : Limited
    Color primaries             : BT.709
    Transfer characteristics    : BT.709
    Matrix coefficients         : BT.709

    Audio #1
    ID                          : 2
    Format                      : E-AC-3
    Format/Info                 : Enhanced AC-3
    Commercial name             : Dolby Digital Plus
    Codec ID                    : A_EAC3
    Duration                    : 48 min 15 s
    Bit rate mode               : Constant
    Bit rate                    : 640 kb/s
    Channel(s)                  : 6 channels
    Channel layout              : L R C LFE Ls Rs
    Sampling rate               : 48.0 kHz
    Frame rate                  : 31.250 FPS (1536 SPF)
    Compression mode            : Lossy
    Stream size                 : 221 MiB (6%)
    Title                       : Español latino [CinemaniaHDD]
    Language                    : Spanish
    Service kind                : Complete Main
    Default                     : Yes
    Forced                      : No

    Audio #2
    ID                          : 3
    Format                      : E-AC-3
    Format/Info                 : Enhanced AC-3
    Commercial name             : Dolby Digital Plus
    Codec ID                    : A_EAC3
    Duration                    : 48 min 15 s
    Bit rate mode               : Constant
    Bit rate                    : 640 kb/s
    Channel(s)                  : 6 channels
    Channel layout              : L R C LFE Ls Rs
    Sampling rate               : 48.0 kHz
    Frame rate                  : 31.250 FPS (1536 SPF)
    Compression mode            : Lossy
    Stream size                 : 221 MiB (6%)
    Title                       : Inglés [CinemaniaHDD]
    Language                    : English
    Service kind                : Complete Main
    Default                     : No
    Forced                      : No

    Text #1
    ID                          : 4
    Format                      : UTF-8
    Codec ID                    : S_TEXT/UTF8
    Codec ID/Info               : UTF-8 Plain Text
    Duration                    : 18 min 47 s
    Bit rate                    : 2 b/s
    Count of elements           : 9
    Stream size                 : 295 Bytes (0%)
    Title                       : Forzados [CinemaniaHDD]
    Language                    : Spanish
    Default                     : Yes
    Forced                      : Yes

    Text #2
    ID                          : 5
    Format                      : UTF-8
    Codec ID                    : S_TEXT/UTF8
    Codec ID/Info               : UTF-8 Plain Text
    Duration                    : 45 min 54 s
    Bit rate                    : 68 b/s
    Count of elements           : 754
    Stream size                 : 23.0 KiB (0%)
    Title                       : Español latino [CinemaniaHDD]
    Language                    : Spanish
    Default                     : No
    Forced                      : No

    Text #3
    ID                          : 6
    Format                      : UTF-8
    Codec ID                    : S_TEXT/UTF8
    Codec ID/Info               : UTF-8 Plain Text
    Duration                    : 46 min 5 s
    Bit rate                    : 72 b/s
    Count of elements           : 894
    Stream size                 : 24.3 KiB (0%)
    Title                       : Inglés [CC] [CinemaniaHDD]
    Language                    : English
    Default                     : No
    Forced                      : No

    Menu
    00:00:00.000                : en:Amazon Original
    00:00:05.000                : en:Previously On
    00:04:00.000                : en:Theft at the hospital
    00:06:42.000                : en:Opening Credits
    00:07:43.000                : en:A new case
    00:08:41.000                : en:Stake out
    00:09:10.000                : en:Investigating a murder
    00:12:10.000                : en:Staking out dirty cops
    00:13:23.000                : en:A lunch about Irvin's campaign
    00:15:41.000                : en:Arriving at the Kent house
    00:17:50.000                : en:Hiring a campaign manager
    00:18:09.000                : en:Interviewing the wife
    00:20:48.000                : en:Looking at the lab
    00:21:56.000                : en:The FBI arrives
    00:22:19.000                : en:Working together
    00:24:37.000                : en:Talking to Lt. Billets
    00:25:13.000                : en:A new pro bono case
    00:26:20.000                : en:Irvin makes demands
    00:26:32.000                : en:A hospital visit
    00:27:25.000                : en:Edgar's investigation stalls
    00:27:48.000                : en:Bosch and Maddie at home
    00:29:23.000                : en:Looking into 308
    00:30:31.000                : en:Containing panic
    00:30:54.000                : en:Canvassing the neighborhood
    00:32:42.000                : en:Prepping for court
    00:34:20.000                : en:Meeting with business partners
    00:35:21.000                : en:An investment in the future of this city
    00:36:04.000                : en:Detectives Crate and Barrel respond to a call
    00:36:44.000                : en:Info on the 308 Squadron
    00:37:27.000                : en:A secret meeting
    00:37:55.000                : en:Undercover work
    00:40:24.000                : en:Jun has some news
    00:42:54.000                : en:Zero exposure
    00:44:02.000                : en:Dinner interrupted
    00:45:18.000                : en:An update on the investigation
    00:46:15.000                : en:Driving home
    00:46:39.000                : en:End Credits

     

  • Peso: 3.40 GiB Aprox ---- 30.9 GiB in 10 Chapters.

Sinopsis

Después de que un físico médico es ejecutado y el material radioactivo mortal que tenía se pierde, el detective Harry Bosch se ve envuelto en un complejo caso de asesinato, una investigación federal y una amenaza catastrófica para Los Ángeles, la ciudad que juró servir y proteger.

Ficha técnica

Video trailer de la película

Enlaces de descarga

Rip de Bluray

Descargar Bosch (2020) Sexta Temporadas AMZN WEB-DL 1080p Latino




Aportes de DPeliculasHDmega la pass es:dpeliculashdmega.org Aportes de CinemaniaHD la pass es:cinemaniahdd.com
Guardado en : Crimen , Drama , Misterio

Películas relacionadas

  • Paradise Highway (2022) HD 1080p Latino

    Paradise Highway (2022) HD 1080p Latino

    2022
    Paradise Highway (2022) HD 1080p Latino

    1h 55m 2022

    Descargar Paradise Highway (2022) HD 1080p Latino. Un camionero se ha visto obligado a pasar de contrabando...

    Director: Anna Gutto

    Género: Crimen

    Actores: Xavier Scott Evans

  • Paradise Highway (2022) PLACEBO Full HD 1080p Latino

    Paradise Highway (2022) PLACEBO Full HD 1080p Latino

    2022
    Paradise Highway (2022) PLACEBO Full HD 1080p Latino

    1h 55m 2022

    Descargar Paradise Highway (2022) PLACEBO Full HD 1080p Latino. Un camionero se ha visto obligado a pasar...

    Director: Anna Gutto

    Género: Crimen

    Actores: Xavier Scott Evans

  • Paradise Highway (2022) REMUX 1080p Latino

    Paradise Highway (2022) REMUX 1080p Latino

    2022
    Paradise Highway (2022) REMUX 1080p Latino

    1h 55m 2022

    Descargar Paradise Highway (2022) REMUX 1080p Latino. Un camionero se ha visto obligado a pasar de contrabando...

    Director: Anna Gutto

    Género: Crimen

    Actores: Xavier Scott Evans

descargar Bosch (2020) Sexta Temporadas AMZN WEB-DL 1080p Latino WEBDL 1080p gratis, Bosch (2020) Sexta Temporadas AMZN WEB-DL 1080p Latino WEBDL mega 1 link, Bosch (2020) Sexta Temporadas AMZN WEB-DL 1080p Latino WEBDL pelicula completa, descargar Bosch (2020) Sexta Temporadas AMZN WEB-DL 1080p Latino WEBDL gratis en mega.

Bosch (2020) Sexta Temporadas AMZN WEB-DL 1080p Latino pelicula full hd, Bosch (2020) Sexta Temporadas AMZN WEB-DL 1080p Latino mega latino, Bosch (2020) Sexta Temporadas AMZN WEB-DL 1080p Latino 4k latino, Bosch (2020) Sexta Temporadas AMZN WEB-DL 1080p Latino pelicula completa, Bosch (2020) Sexta Temporadas AMZN WEB-DL 1080p Latino descargar gratis, descargar Bosch (2020) Sexta Temporadas AMZN WEB-DL 1080p Latino pelicula latino, Bosch (2020) Sexta Temporadas AMZN WEB-DL 1080p Latino 1 link mega, Bosch (2020) Sexta Temporadas AMZN WEB-DL 1080p Latino 1 link google drive, Bosch (2020) Sexta Temporadas AMZN WEB-DL 1080p Latino hd 1080p latino.
Comentarios 0