×

¿Problemas para descargar con Mozilla, EDGE? Deshabilita la opción "Abrir vinculos en una pestaña nueva" tal como lo muestra ésta imagen.

Bosch (2015 – 2019) Temporadas 1 al 5 AMZN WEB-DL 1080p Latino

482 vistas

Información de Bosch (2015 – 2019) Temporadas 1 al 5 AMZN WEB-DL 1080p Latino

Datos de la película

  • Calidad: WEBDL
  • Audio: Español Latino E-AC3 5.1 AMAZON - Ingles E-AC3 5.1 AMAZON
  • Subtitulos: Español Latino SRT- FORZADOS SRT
  • Resolución: 1920x1080
  • Formato: MKV
  • Codec: H.264
  • Encoder: cinemaniahdd
  • Mediainfo: Clic para Mostrar Datos Ver
  • Bosch [T01E01] (2015) Temporada 1 [AMZN] WEB-DL 1080p Latino - CMHDD.mkv
    Format                      : Matroska
    Format version              : Version 4
    File size                   : 3.66 GiB
    Duration                    : 47 min 9 s
    Overall bit rate            : 11.1 Mb/s
    Movie name                  : Bosch T01E01 - CinemaniaHDD.Net
    Encoded date                : UTC 2020-11-11 03:32:35
    Writing application         : mkvmerge v51.0.0 ('I Wish') 64-bit
    Writing library             : libebml v1.4.0 + libmatroska v1.6.2

    Video
    ID                          : 1
    Format                      : AVC
    Format/Info                 : Advanced Video Codec
    Format profile              : High@L4
    Format settings             : CABAC / 4 Ref Frames
    Format settings, CABAC      : Yes
    Format settings, Reference  : 4 frames
    Format settings, GOP        : M=4, N=48
    Codec ID                    : V_MPEG4/ISO/AVC
    Duration                    : 47 min 9 s
    Bit rate mode               : Constant
    Bit rate                    : 10 000 kb/s
    Width                       : 1 920 pixels
    Height                      : 1 080 pixels
    Display aspect ratio        : 16:9
    Frame rate mode             : Constant
    Frame rate                  : 23.976 (24000/1001) FPS
    Color space                 : YUV
    Chroma subsampling          : 4:2:0
    Bit depth                   : 8 bits
    Scan type                   : Progressive
    Bits/(Pixel*Frame)          : 0.201
    Stream size                 : 3.23 GiB (88%)
    Title                       : CinemaniaHDD
    Language                    : English
    Default                     : Yes
    Forced                      : No
    Color range                 : Limited
    Color primaries             : BT.709
    Transfer characteristics    : BT.709
    Matrix coefficients         : BT.709

    Audio #1
    ID                          : 2
    Format                      : E-AC-3
    Format/Info                 : Enhanced AC-3
    Commercial name             : Dolby Digital Plus
    Codec ID                    : A_EAC3
    Duration                    : 47 min 9 s
    Bit rate mode               : Constant
    Bit rate                    : 640 kb/s
    Channel(s)                  : 6 channels
    Channel layout              : L R C LFE Ls Rs
    Sampling rate               : 48.0 kHz
    Frame rate                  : 31.250 FPS (1536 SPF)
    Compression mode            : Lossy
    Stream size                 : 216 MiB (6%)
    Title                       : Español latino [CinemaniaHDD]
    Language                    : Spanish
    Service kind                : Complete Main
    Default                     : Yes
    Forced                      : No

    Audio #2
    ID                          : 3
    Format                      : E-AC-3
    Format/Info                 : Enhanced AC-3
    Commercial name             : Dolby Digital Plus
    Codec ID                    : A_EAC3
    Duration                    : 47 min 9 s
    Bit rate mode               : Constant
    Bit rate                    : 640 kb/s
    Channel(s)                  : 6 channels
    Channel layout              : L R C LFE Ls Rs
    Sampling rate               : 48.0 kHz
    Frame rate                  : 31.250 FPS (1536 SPF)
    Compression mode            : Lossy
    Stream size                 : 216 MiB (6%)
    Title                       : Inglés [CinemaniaHDD]
    Language                    : English
    Service kind                : Complete Main
    Default                     : No
    Forced                      : No

    Text #1
    ID                          : 4
    Format                      : UTF-8
    Codec ID                    : S_TEXT/UTF8
    Codec ID/Info               : UTF-8 Plain Text
    Duration                    : 35 min 22 s
    Bit rate                    : 0 b/s
    Count of elements           : 8
    Stream size                 : 224 Bytes (0%)
    Title                       : Forzados [CinemaniaHDD]
    Language                    : Spanish
    Default                     : Yes
    Forced                      : Yes

    Text #2
    ID                          : 5
    Format                      : UTF-8
    Codec ID                    : S_TEXT/UTF8
    Codec ID/Info               : UTF-8 Plain Text
    Duration                    : 45 min 4 s
    Bit rate                    : 65 b/s
    Count of elements           : 647
    Stream size                 : 21.6 KiB (0%)
    Title                       : Español latino [CinemaniaHDD]
    Language                    : Spanish
    Default                     : No
    Forced                      : No

    Text #3
    ID                          : 6
    Format                      : UTF-8
    Codec ID                    : S_TEXT/UTF8
    Codec ID/Info               : UTF-8 Plain Text
    Duration                    : 45 min 48 s
    Bit rate                    : 73 b/s
    Count of elements           : 827
    Stream size                 : 24.8 KiB (0%)
    Title                       : Inglés [CC] [CinemaniaHDD]
    Language                    : English
    Default                     : No
    Forced                      : No

    Menu
    00:00:00.000                : en:Amazon Original
    00:00:05.000                : en:Bosch and Edgar follow Roberto through town
    00:05:42.000                : en:Opening Credits
    00:06:43.000                : en:Bosch stands trial for the shooting of Flores
    00:11:45.000                : en:Bosch receives both comfort and mockery after the trial
    00:12:53.000                : en:Bosch returns to the police station
    00:14:53.000                : en:Edgar and the Lieutenant find Bosch on the rooftop
    00:15:59.000                : en:Bosch recalls his encounter with Flores
    00:17:11.000                : en:Bosch works the Saturday shift
    00:19:55.000                : en:Dr. Guyot shows Bosch the bone he found
    00:22:00.000                : en:Brasher introduces herself to Bosch
    00:23:23.000                : en:Bosch searches the hillside for bones
    00:25:29.000                : en:Dr. Guyot patches Bosch up after his tumble
    00:26:06.000                : en:The lieutenant scolds Bosch for going rogue
    00:28:38.000                : en:Edgar and the other officers search the crime scene
    00:32:11.000                : en:Bosch and Edgar find a mole in the taco truck
    00:34:12.000                : en:Brasher and Bosch talk over martinis
    00:36:23.000                : en:Bosch returns to the gravesite after dark
    00:37:40.000                : en:Bosch offers his smokes to a homeless man
    00:38:20.000                : en:Chandler interrogates Bosch about his motivations
    00:41:41.000                : en:Edgar picks Bosch up after the trial
    00:42:06.000                : en:Golliher shares the victim's story with Edgar and Bosch
    00:46:15.000                : en:Break
    00:46:17.000                : en:End Credits

     

  • Peso: 3.66 GiB c/u Aprox ---- 175 GiB in 5 Season.

Sinopsis

Basada en las novelas de Michael Connelly, Harry Bosch, un detective de homicidios de Los Ángeles, va a juicio al ser sospechoso de unos asesinatos en serie, mientras que un caso sin resolver involucra los restos de un niño y lo obliga a confrontar su pasado. Una recluta intrépida, Julia Brasher, llama su atención y la política en el departamento se enciende, buscará hacer justicia a toda costa.

Ficha técnica

Video trailer de la película

Enlaces de descarga

Rip de Bluray

Descargar Bosch (2015 – 2019) Temporadas 1 al 5 AMZN WEB-DL 1080p Latino




Aportes de DPeliculasHDmega la pass es:dpeliculashdmega.org Aportes de CinemaniaHD la pass es:cinemaniahdd.com
Guardado en : Crimen , Drama , Misterio , Series

Películas relacionadas

descargar Bosch (2015 – 2019) Temporadas 1 al 5 AMZN WEB-DL 1080p Latino WEBDL 1080p gratis, Bosch (2015 – 2019) Temporadas 1 al 5 AMZN WEB-DL 1080p Latino WEBDL mega 1 link, Bosch (2015 – 2019) Temporadas 1 al 5 AMZN WEB-DL 1080p Latino WEBDL serie completa, descargar Bosch (2015 – 2019) Temporadas 1 al 5 AMZN WEB-DL 1080p Latino WEBDL gratis en mega.

Bosch (2015 – 2019) Temporadas 1 al 5 AMZN WEB-DL 1080p Latino pelicula full hd, Bosch (2015 – 2019) Temporadas 1 al 5 AMZN WEB-DL 1080p Latino mega latino, Bosch (2015 – 2019) Temporadas 1 al 5 AMZN WEB-DL 1080p Latino 4k latino, Bosch (2015 – 2019) Temporadas 1 al 5 AMZN WEB-DL 1080p Latino pelicula completa, Bosch (2015 – 2019) Temporadas 1 al 5 AMZN WEB-DL 1080p Latino descargar gratis, descargar Bosch (2015 – 2019) Temporadas 1 al 5 AMZN WEB-DL 1080p Latino pelicula latino, Bosch (2015 – 2019) Temporadas 1 al 5 AMZN WEB-DL 1080p Latino 1 link mega, Bosch (2015 – 2019) Temporadas 1 al 5 AMZN WEB-DL 1080p Latino 1 link google drive, Bosch (2015 – 2019) Temporadas 1 al 5 AMZN WEB-DL 1080p Latino hd 1080p latino.
Comentarios 0