×

¿Problemas para descargar con Mozilla, EDGE? Deshabilita la opción "Abrir vinculos en una pestaña nueva" tal como lo muestra ésta imagen.

Borrego: Sal Del Camino (2022) AMZN WEB-DL 1080p Latino

432 vistas

Información de Borrego: Sal Del Camino (2022) AMZN WEB-DL 1080p Latino

Datos de la película

  • Calidad: WEBDL
  • Audio: Español Latino AC3 2.0 WEB-DL - Ingles AC3 5.1 WEB-DL
  • Subtitulos: Español Latino SRT- FORZADOS SRT
  • Resolución: 1920x800p
  • Formato: MKV
  • Codec: H.264
  • Encoder: Melkor
  • Mediainfo: Clic para Mostrar Datos Ver
  • Borrego. Sal Del Camino (2022) AMZN WebDL 1080p Latino.mkv
    Format                      : Matroska
    Format version              : Version 4
    File size                   : 7.10 GiB
    Duration                    : 1 h 42 min
    Overall bit rate            : 9 936 kb/s
    Movie name                  : Borrego (2022) CinemaniaHDD.Net
    Encoded date                : UTC 2022-07-15 05:46:47
    Writing application         : mkvmerge v56.1.0 ('My Friend') 64-bit
    Writing library             : libebml v1.4.2 + libmatroska v1.6.4
    Attachments                 : CINEMANIAHD.png

    Video
    ID                          : 1
    Format                      : AVC
    Format/Info                 : Advanced Video Codec
    Format profile              : High@L4
    Format settings             : CABAC / 4 Ref Frames
    Format settings, CABAC      : Yes
    Format settings, Reference  : 4 frames
    Codec ID                    : V_MPEG4/ISO/AVC
    Duration                    : 1 h 42 min
    Bit rate mode               : Constant
    Bit rate                    : 9 038 kb/s
    Nominal bit rate            : 10 000 kb/s
    Width                       : 1 920 pixels
    Height                      : 800 pixels
    Display aspect ratio        : 2.40:1
    Frame rate mode             : Constant
    Frame rate                  : 23.976 (24000/1001) FPS
    Color space                 : YUV
    Chroma subsampling          : 4:2:0
    Bit depth                   : 8 bits
    Scan type                   : Progressive
    Bits/(Pixel*Frame)          : 0.245
    Stream size                 : 6.46 GiB (91%)
    Title                       : Web HD1080p [CinemaniaHDD]
    Default                     : Yes
    Forced                      : Yes
    Color range                 : Limited
    Color primaries             : BT.709
    Transfer characteristics    : BT.709
    Matrix coefficients         : BT.709

    Audio #1
    ID                          : 2
    Format                      : AC-3
    Format/Info                 : Audio Coding 3
    Commercial name             : Dolby Digital
    Codec ID                    : A_AC3
    Duration                    : 1 h 42 min
    Bit rate mode               : Constant
    Bit rate                    : 256 kb/s
    Channel(s)                  : 2 channels
    Channel layout              : L R
    Sampling rate               : 48.0 kHz
    Frame rate                  : 31.250 FPS (1536 SPF)
    Compression mode            : Lossy
    Stream size                 : 187 MiB (3%)
    Title                       : Español Latino [CinemaniaHDD]
    Language                    : Spanish
    Service kind                : Complete Main
    Default                     : Yes
    Forced                      : Yes

    Audio #2
    ID                          : 3
    Format                      : E-AC-3
    Format/Info                 : Enhanced AC-3
    Commercial name             : Dolby Digital Plus
    Codec ID                    : A_EAC3
    Duration                    : 1 h 42 min
    Bit rate mode               : Constant
    Bit rate                    : 640 kb/s
    Channel(s)                  : 6 channels
    Channel layout              : L R C LFE Ls Rs
    Sampling rate               : 48.0 kHz
    Frame rate                  : 31.250 FPS (1536 SPF)
    Compression mode            : Lossy
    Stream size                 : 468 MiB (6%)
    Title                       : Ingles [CinemaniaHDD]
    Language                    : English
    Service kind                : Complete Main
    Default                     : No
    Forced                      : No

    Text #1
    ID                          : 4
    Format                      : UTF-8
    Codec ID                    : S_TEXT/UTF8
    Codec ID/Info               : UTF-8 Plain Text
    Duration                    : 35 min 16 s
    Bit rate                    : 2 b/s
    Count of elements           : 11
    Stream size                 : 567 Bytes (0%)
    Title                       : Forzados-SRT [CinemaniaHDD]
    Language                    : Spanish
    Default                     : Yes
    Forced                      : Yes

    Text #2
    ID                          : 5
    Format                      : UTF-8
    Codec ID                    : S_TEXT/UTF8
    Codec ID/Info               : UTF-8 Plain Text
    Duration                    : 1 h 37 min
    Bit rate                    : 20 b/s
    Count of elements           : 482
    Stream size                 : 14.3 KiB (0%)
    Title                       : Español-SRT [CinemaniaHDD]
    Language                    : Spanish
    Default                     : No
    Forced                      : No

    Text #3
    ID                          : 6
    Format                      : UTF-8
    Codec ID                    : S_TEXT/UTF8
    Codec ID/Info               : UTF-8 Plain Text
    Duration                    : 1 h 34 min
    Bit rate                    : 20 b/s
    Count of elements           : 517
    Stream size                 : 14.1 KiB (0%)
    Title                       : Ingles-SRT [CinemaniaHDD]
    Language                    : English
    Default                     : No
    Forced                      : No

    Menu
    00:00:00.000                : Studio Logo
    00:00:35.000                : Prologue
    00:01:02.000                : Opening Credits
    00:02:01.000                : Title Sequence
    00:02:11.000                : Scene 5
    00:04:31.000                : Scene 6
    00:09:21.000                : Scene 7
    00:13:39.000                : Scene 8
    00:19:36.000                : Scene 9
    00:23:06.000                : Scene 10
    00:28:12.000                : Scene 11
    00:33:12.000                : Scene 12
    00:38:25.000                : Scene 13
    00:42:29.000                : Scene 14
    00:46:06.000                : Scene 15
    00:50:07.000                : Scene 16
    00:55:07.000                : Scene 17
    01:00:30.000                : Scene 18
    01:02:13.000                : Scene 19
    01:06:24.000                : Scene 20
    01:08:03.000                : Scene 21
    01:13:53.000                : Scene 22
    01:16:38.000                : Scene 23
    01:18:50.000                : Scene 24
    01:23:15.000                : Scene 25
    01:24:25.000                : Scene 26
    01:27:42.000                : Scene 27
    01:30:17.000                : Scene 28
    01:32:02.000                : Scene 29
    01:34:00.000                : Scene 30
    01:37:36.000                : Epilogue
    01:37:54.000                : End Credits

  • Peso: 7.10 GiB

Sinopsis

Descargar Borrego: Sal Del Camino (2022) AMZN WEB-DL 1080p Latino. Sigue a una joven botánica que se muda a un pueblo del desierto para estudiar una especie de planta invasora. Debe luchar por su supervivencia cuando es secuestrada por una mula de drogas después de que su avión se estrella en el desierto.

Ficha técnica

Video trailer de la película

Enlaces de descarga

Rip de Bluray

Descargar Borrego: Sal Del Camino (2022) AMZN WEB-DL 1080p Latino




Aportes de DPeliculasHDmega la pass es:dpeliculashdmega.org Aportes de CinemaniaHD la pass es:cinemaniahdd.com
Guardado en : Crimen , Suspenso

Películas relacionadas

  • Jaula Mental (2022) HD 1080p Latino

    Jaula Mental (2022) HD 1080p Latino

    2022
    Jaula Mental (2022) HD 1080p Latino

    1h 47m 2022

    Descargar Jaula Mental (2022) HD 1080p Latino. Cuando un asesino que imita otros crímenes comienza a...

    Director: Mauro Borrelli

    Género: Crimen

    Actores: Victoria Fox

  • Jaula Mental (2022) PLACEBO Full HD 1080p Latino

    Jaula Mental (2022) PLACEBO Full HD 1080p Latino

    2022
    Jaula Mental (2022) PLACEBO Full HD 1080p Latino

    1h 47m 2022

    Descargar Jaula Mental (2022) PLACEBO Full HD 1080p Latino. Cuando un asesino que imita otros crímenes...

    Director: Mauro Borrelli

    Género: Crimen

    Actores: Victoria Fox

  • Jaula Mental (2022) REMUX 1080p Latino

    Jaula Mental (2022) REMUX 1080p Latino

    2022
    Jaula Mental (2022) REMUX 1080p Latino

    1h 47m 2022

    Descargar Jaula Mental (2022) REMUX 1080p Latino. Cuando un asesino que imita otros crímenes comienza...

    Director: Mauro Borrelli

    Género: Crimen

    Actores: Victoria Fox

  • Transfusion (2023) HD 1080p Latino

    Transfusion (2023) HD 1080p Latino

    2023
    Transfusion (2023) HD 1080p Latino

    1h 45m 2023

    Descargar Transfusion (2023) HD 1080p Latino. Un antiguo agente de las Fuerzas Especiales se ve empujado...

    Director: Matt Nable

    Género: Crimen

    Actores: Trystan Go

  • Transfusion (2023) PLACEBO Full HD 1080p Latino

    Transfusion (2023) PLACEBO Full HD 1080p Latino

    2023
    Transfusion (2023) PLACEBO Full HD 1080p Latino

    1h 45m 2023

    Descargar Transfusion (2023) PLACEBO Full HD 1080p Latino. Un antiguo agente de las Fuerzas Especiales...

    Director: Matt Nable

    Género: Crimen

    Actores: Trystan Go

descargar Borrego: Sal Del Camino (2022) AMZN WEB-DL 1080p Latino WEBDL 1080p gratis, Borrego: Sal Del Camino (2022) AMZN WEB-DL 1080p Latino WEBDL mega 1 link, Borrego: Sal Del Camino (2022) AMZN WEB-DL 1080p Latino WEBDL pelicula completa, descargar Borrego: Sal Del Camino (2022) AMZN WEB-DL 1080p Latino WEBDL gratis en mega.

Borrego: Sal Del Camino (2022) AMZN WEB-DL 1080p Latino pelicula full hd, Borrego: Sal Del Camino (2022) AMZN WEB-DL 1080p Latino mega latino, Borrego: Sal Del Camino (2022) AMZN WEB-DL 1080p Latino 4k latino, Borrego: Sal Del Camino (2022) AMZN WEB-DL 1080p Latino pelicula completa, Borrego: Sal Del Camino (2022) AMZN WEB-DL 1080p Latino descargar gratis, descargar Borrego: Sal Del Camino (2022) AMZN WEB-DL 1080p Latino pelicula latino, Borrego: Sal Del Camino (2022) AMZN WEB-DL 1080p Latino 1 link mega, Borrego: Sal Del Camino (2022) AMZN WEB-DL 1080p Latino 1 link google drive, Borrego: Sal Del Camino (2022) AMZN WEB-DL 1080p Latino hd 1080p latino.
Comentarios 0