Borg Vs McEnroe (2017) REMUX 1080p Latino – CMHDD

34 vistas
1 estrella2 estrellas3 estrellas4 estrellas5 estrellas (Ninguna valoración todavía)
Cargando...

Información de Borg Vs McEnroe (2017) REMUX 1080p Latino – CMHDD

Datos de la película

  • Calidad: Full 1080p
  • Audio: Español Latino AC3 2.0 DVD - Ingles DTS 5.1 BLURAY
  • Subtitulos: Español Latino SRT- FORZADOS SRT
  • Resolución: 1920x1080p
  • Formato: MKV
  • Codec: H.264
  • Encoder: Dracarys
  • Mediainfo: Clic para Mostrar Datos Ver
  • Format                      : Matroska
    Format version              : Version 4
    File size                   : 21.2 GiB
    Duration                    : 1 h 47 min
    Overall bit rate mode       : Variable
    Overall bit rate            : 28.1 Mb/s
    Movie name                  : Borg Vs McEnroe (2017) REMUX 1080p Latino - CMHDD
    Encoded date                : UTC 2021-07-26 02:30:54
    Writing application         : mkvmerge v56.1.0 ('My Friend') 64-bit
    Writing library             : libebml v1.4.2 + libmatroska v1.6.4
    Cover                       : Yes
    Attachments                 : cover.jpg

    Video
    ID                          : 1
    ID in the original source m : 4113 (0x1011)
    Format                      : AVC
    Format/Info                 : Advanced Video Codec
    Format profile              : High@L4.1
    Format settings             : CABAC / 4 Ref Frames
    Format settings, CABAC      : Yes
    Format settings, Reference  : 4 frames
    Codec ID                    : V_MPEG4/ISO/AVC
    Duration                    : 1 h 47 min
    Bit rate mode               : Variable
    Bit rate                    : 21.9 Mb/s
    Maximum bit rate            : 38.0 Mb/s
    Width                       : 1 920 pixels
    Height                      : 1 080 pixels
    Display aspect ratio        : 16:9
    Frame rate mode             : Constant
    Frame rate                  : 24.000 FPS
    Color space                 : YUV
    Chroma subsampling          : 4:2:0
    Bit depth                   : 8 bits
    Scan type                   : Progressive
    Bits/(Pixel*Frame)          : 0.440
    Stream size                 : 16.5 GiB (78%)
    Default                     : Yes
    Forced                      : No
    Original source medium      : Blu-ray

    Audio #1
    ID                          : 2
    ID in the original source m : 4352 (0x1100)
    Format                      : PCM
    Format settings             : Little / Signed
    Codec ID                    : A_PCM/INT/LIT
    Duration                    : 1 h 47 min
    Bit rate mode               : Constant
    Bit rate                    : 2 304 kb/s
    Channel(s)                  : 2 channels
    Sampling rate               : 48.0 kHz
    Frame rate                  : 200.000 FPS (240 SPF)
    Bit depth                   : 24 bits
    Stream size                 : 1.74 GiB (8%)
    Language                    : English
    Default                     : No
    Forced                      : No
    Original source medium      : Blu-ray

    Audio #2
    ID                          : 3
    ID in the original source m : 4353 (0x1101)
    Format                      : DTS XLL
    Format/Info                 : Digital Theater Systems
    Commercial name             : DTS-HD Master Audio
    Codec ID                    : A_DTS
    Duration                    : 1 h 47 min
    Bit rate mode               : Variable
    Bit rate                    : 3 620 kb/s
    Channel(s)                  : 6 channels
    Channel layout              : C L R Ls Rs LFE
    Sampling rate               : 48.0 kHz
    Frame rate                  : 93.750 FPS (512 SPF)
    Bit depth                   : 24 bits
    Compression mode            : Lossless
    Stream size                 : 2.73 GiB (13%)
    Language                    : English
    Default                     : No
    Forced                      : No
    Original source medium      : Blu-ray

    Audio #3
    ID                          : 4
    Format                      : AC-3
    Format/Info                 : Audio Coding 3
    Commercial name             : Dolby Digital
    Codec ID                    : A_AC3
    Duration                    : 1 h 47 min
    Bit rate mode               : Constant
    Bit rate                    : 256 kb/s
    Channel(s)                  : 2 channels
    Channel layout              : L R
    Sampling rate               : 44.1 kHz
    Frame rate                  : 28.711 FPS (1536 SPF)
    Compression mode            : Lossy
    Stream size                 : 198 MiB (1%)
    Language                    : Spanish
    Service kind                : Complete Main
    Default                     : Yes
    Forced                      : Yes

    Text #1
    ID                          : 5
    Format                      : UTF-8
    Codec ID                    : S_TEXT/UTF8
    Codec ID/Info               : UTF-8 Plain Text
    Duration                    : 1 h 38 min
    Bit rate                    : 51 b/s
    Count of elements           : 1086
    Stream size                 : 37.3 KiB (0%)
    Language                    : Spanish
    Default                     : No
    Forced                      : No

    Text #2
    ID                          : 6
    Format                      : UTF-8
    Codec ID                    : S_TEXT/UTF8
    Codec ID/Info               : UTF-8 Plain Text
    Duration                    : 1 h 38 min
    Bit rate                    : 2 b/s
    Count of elements           : 40
    Stream size                 : 1.45 KiB (0%)
    Language                    : Spanish
    Default                     : Yes
    Forced                      : Yes

    Menu
    00:00:00.000                : Chapter 01
    00:09:11.333                : Chapter 02
    00:14:41.166                : Chapter 03
    00:17:22.583                : Chapter 04
    00:27:37.375                : Chapter 05
    00:32:48.541                : Chapter 06
    00:41:39.666                : Chapter 07
    00:49:36.541                : Chapter 08
    01:01:10.208                : Chapter 09
    01:10:13.416                : Chapter 10
    01:16:42.583                : Chapter 11
    01:36:33.125                : Chapter 12

  • Peso: 21.2 GiB

Sinopsis

Narra la historia de la rivalidad entre dos leyendas del tenis: el sueco Björn Borg (Sverrir Gudnason) y el norteamericano John McEnroe (Shia LaBeouf), un enfrentamiento legendario de la historia del deporte que tuvo su culminación en la final de Wimbledon de 1980, que enfrentó a ambos.

Ficha técnica

  • Titulo original: Borg vs McEnroe
  • Fecha de lanzamiento: 06-09-2017 (Denmark, Finland, Sweden)
  • Director: Janus Metz Pedersen
  • Género: Drama, Historia
  • Puntuación: 0.0 0 votos
  • Duración:
    1h 47m

Video trailer de la película

Enlaces de descarga

Rip de Bluray

Descargar Borg Vs McEnroe (2017) REMUX 1080p Latino – CMHDD


Aportes de DPeliculasHDmega la pass es:dpeliculashdmega.org Aportes de CinemaniaHD la pass es:cinemaniahdd.com
Guardado en : Drama , Historia

Películas relacionadas

Borg Vs McEnroe (2017) REMUX 1080p Latino – CMHDD pelicula full hd, Borg Vs McEnroe (2017) REMUX 1080p Latino – CMHDD mega latino, Borg Vs McEnroe (2017) REMUX 1080p Latino – CMHDD 4k latino, Borg Vs McEnroe (2017) REMUX 1080p Latino – CMHDD pelicula completa, Borg Vs McEnroe (2017) REMUX 1080p Latino – CMHDD descargar gratis, descargar Borg Vs McEnroe (2017) REMUX 1080p Latino – CMHDD pelicula latino, Borg Vs McEnroe (2017) REMUX 1080p Latino – CMHDD 1 link mega, Borg Vs McEnroe (2017) REMUX 1080p Latino – CMHDD 1 link google drive, Borg Vs McEnroe (2017) REMUX 1080p Latino – CMHDD hd 1080p latino.
Comentarios 0