×

¿Problemas para descargar con Mozilla, EDGE? Deshabilita la opción "Abrir vinculos en una pestaña nueva" tal como lo muestra ésta imagen.

Borat Subsequent Moviefilm (2020) AMZN WEB-DL 1080p Latino

290 vistas

Información de Borat Subsequent Moviefilm (2020) AMZN WEB-DL 1080p Latino

Datos de la película

  • Calidad: WEBDL
  • Audio: Español Latino E-AC3 5.1 AMAZON - Ingles E-AC3 5.1 AMAZON
  • Subtitulos: Español Latino SRT- FORZADOS SRT
  • Resolución: 1920x1080
  • Formato: MKV
  • Codec: H.264
  • Encoder:
  • Mediainfo: Clic para Mostrar Datos Ver
  • Borat Subsequent Moviefilm (2020) AMZN WEB-DL 1080p Latino.mkv
    Format                      : Matroska
    Format version              : Version 4
    File size                   : 7.63 GiB
    Duration                    : 1 h 36 min
    Overall bit rate            : 11.4 Mb/s
    Movie name                  : Borat Subsequent Moviefilm (2020) - CinemaniaHDD.Net
    Encoded date                : UTC 2020-10-23 00:20:24
    Writing application         : mkvmerge v51.0.0 ('I Wish') 64-bit
    Writing library             : libebml v1.4.0 + libmatroska v1.6.2

    Video
    ID                          : 1
    Format                      : AVC
    Format/Info                 : Advanced Video Codec
    Format profile              : High@L4
    Format settings             : CABAC / 4 Ref Frames
    Format settings, CABAC      : Yes
    Format settings, Reference  : 4 frames
    Codec ID                    : V_MPEG4/ISO/AVC
    Duration                    : 1 h 36 min
    Bit rate mode               : Constant
    Bit rate                    : 8 802 kb/s
    Nominal bit rate            : 10 000 kb/s
    Width                       : 1 920 pixels
    Height                      : 1 080 pixels
    Display aspect ratio        : 16:9
    Frame rate mode             : Constant
    Frame rate                  : 23.976 (24000/1001) FPS
    Color space                 : YUV
    Chroma subsampling          : 4:2:0
    Bit depth                   : 8 bits
    Scan type                   : Progressive
    Bits/(Pixel*Frame)          : 0.177
    Stream size                 : 5.91 GiB (77%)
    Title                       : CinemaniaHDD
    Default                     : Yes
    Forced                      : No
    Color range                 : Limited
    Color primaries             : BT.709
    Transfer characteristics    : BT.709
    Matrix coefficients         : BT.709

    Audio #1
    ID                          : 2
    Format                      : AC-3
    Format/Info                 : Audio Coding 3
    Commercial name             : Dolby Digital
    Codec ID                    : A_AC3
    Duration                    : 1 h 36 min
    Bit rate mode               : Constant
    Bit rate                    : 640 kb/s
    Channel(s)                  : 6 channels
    Channel layout              : L R C LFE Ls Rs
    Sampling rate               : 48.0 kHz
    Frame rate                  : 31.250 FPS (1536 SPF)
    Compression mode            : Lossy
    Stream size                 : 440 MiB (6%)
    Title                       : Español latino - AC3 [CinemaniaHDD]
    Language                    : Spanish
    Service kind                : Complete Main
    Default                     : Yes
    Forced                      : No

    Audio #2
    ID                          : 3
    Format                      : E-AC-3
    Format/Info                 : Enhanced AC-3
    Commercial name             : Dolby Digital Plus
    Codec ID                    : A_EAC3
    Duration                    : 1 h 36 min
    Bit rate mode               : Constant
    Bit rate                    : 640 kb/s
    Channel(s)                  : 6 channels
    Channel layout              : L R C LFE Ls Rs
    Sampling rate               : 48.0 kHz
    Frame rate                  : 31.250 FPS (1536 SPF)
    Compression mode            : Lossy
    Stream size                 : 440 MiB (6%)
    Title                       : Español latino - E-AC3 [CinemaniaHDD]
    Language                    : Spanish
    Service kind                : Complete Main
    Default                     : No
    Forced                      : No

    Audio #3
    ID                          : 4
    Format                      : E-AC-3
    Format/Info                 : Enhanced AC-3
    Commercial name             : Dolby Digital Plus
    Codec ID                    : A_EAC3
    Duration                    : 1 h 36 min
    Bit rate mode               : Constant
    Bit rate                    : 640 kb/s
    Channel(s)                  : 6 channels
    Channel layout              : L R C LFE Ls Rs
    Sampling rate               : 48.0 kHz
    Frame rate                  : 31.250 FPS (1536 SPF)
    Compression mode            : Lossy
    Stream size                 : 440 MiB (6%)
    Title                       : Inglés - E-AC3 [CinemaniaHDD]
    Language                    : English
    Service kind                : Complete Main
    Default                     : No
    Forced                      : No

    Audio #4
    ID                          : 5
    Format                      : AC-3
    Format/Info                 : Audio Coding 3
    Commercial name             : Dolby Digital
    Codec ID                    : A_AC3
    Duration                    : 1 h 36 min
    Bit rate mode               : Constant
    Bit rate                    : 640 kb/s
    Channel(s)                  : 6 channels
    Channel layout              : L R C LFE Ls Rs
    Sampling rate               : 48.0 kHz
    Frame rate                  : 31.250 FPS (1536 SPF)
    Compression mode            : Lossy
    Stream size                 : 440 MiB (6%)
    Title                       : Inglés - AC3 [CinemaniaHDD]
    Language                    : English
    Service kind                : Complete Main
    Default                     : No
    Forced                      : No

    Text #1
    ID                          : 6
    Format                      : UTF-8
    Codec ID                    : S_TEXT/UTF8
    Codec ID/Info               : UTF-8 Plain Text
    Duration                    : 1 h 35 min
    Bit rate                    : 14 b/s
    Count of elements           : 347
    Stream size                 : 9.79 KiB (0%)
    Title                       : Forzados [CinemaniaHDD]
    Language                    : Spanish
    Default                     : Yes
    Forced                      : Yes

    Text #2
    ID                          : 7
    Format                      : UTF-8
    Codec ID                    : S_TEXT/UTF8
    Codec ID/Info               : UTF-8 Plain Text
    Duration                    : 1 h 35 min
    Bit rate                    : 66 b/s
    Count of elements           : 1536
    Stream size                 : 46.3 KiB (0%)
    Title                       : Español latino [CinemaniaHDD]
    Language                    : Spanish
    Default                     : No
    Forced                      : No

    Text #3
    ID                          : 8
    Format                      : UTF-8
    Codec ID                    : S_TEXT/UTF8
    Codec ID/Info               : UTF-8 Plain Text
    Duration                    : 1 h 35 min
    Bit rate                    : 83 b/s
    Count of elements           : 1959
    Stream size                 : 58.9 KiB (0%)
    Title                       : Inglés [CinemaniaHDD]
    Language                    : English
    Default                     : No
    Forced                      : No

     

  • Peso: 7.63 GiB

Sinopsis

Entrega del prodigioso soborno al régimen estadounidense para beneficio de la una vez gloriosa nación de Kazajistán.

Ficha técnica

  • Titulo original: Borat Subsequent Moviefilm
  • Fecha de lanzamiento: 23-10-2020 (Ukraine, United States of America)
  • Director: Jason Woliner
  • Género: Comedia

Video trailer de la película

Enlaces de descarga

Rip de Bluray

Descargar Borat Subsequent Moviefilm (2020) AMZN WEB-DL 1080p Latino




Aportes de DPeliculasHDmega la pass es:dpeliculashdmega.org Aportes de CinemaniaHD la pass es:cinemaniahdd.com
Guardado en : Comedia

Películas relacionadas

  • Hombre de familia (2000) REMUX 1080p Latino

    Hombre de familia (2000) REMUX 1080p Latino

    2000
    Hombre de familia (2000) REMUX 1080p Latino

    2h 1m 2000

    Descargar Hombre de familia (2000) REMUX 1080p Latino. Jack Campbell es un egocéntrico broker de Wall...

    Director: Robert Schroer

    Género: Comedia

    Actores: Wass Stevens

  • Te Amo Brother (2009) REMUX 1080p Latino

    Te Amo Brother (2009) REMUX 1080p Latino

    2009
    Te Amo Brother (2009) REMUX 1080p Latino

    1h 45m 2009

    Descargar Te Amo Brother (2009) REMUX 1080p Latino. Peter Klaven (Paul Rudd) es un joven que vive muy...

    Director: Scott Robertson

    Género: Comedia

    Actores: Vicki Davis

  • Asústame (2020) HD 1080p Latino

    Asústame (2020) HD 1080p Latino

    2020
    Asústame (2020) HD 1080p Latino

    1h 44m 2020

    Descargar Asústame (2020) HD 1080p Latino. Durante un corte de energía, dos extraños cuentan historias...

    Director: Josh Ruben

    Género: Comedia

    Actores: Rebecca Drysdale

  • Asústame (2020) PLACEBO Full HD 1080p Latino

    Asústame (2020) PLACEBO Full HD 1080p Latino

    2020
    Asústame (2020) PLACEBO Full HD 1080p Latino

    1h 44m 2020

    Descargar Asústame (2020) PLACEBO Full HD 1080p Latino. Durante un corte de energía, dos extraños...

    Director: Josh Ruben

    Género: Comedia

    Actores: Rebecca Drysdale

descargar Borat Subsequent Moviefilm (2020) AMZN WEB-DL 1080p Latino WEBDL 1080p gratis, Borat Subsequent Moviefilm (2020) AMZN WEB-DL 1080p Latino WEBDL mega 1 link, Borat Subsequent Moviefilm (2020) AMZN WEB-DL 1080p Latino WEBDL pelicula completa, descargar Borat Subsequent Moviefilm (2020) AMZN WEB-DL 1080p Latino WEBDL gratis en mega.

Borat Subsequent Moviefilm (2020) AMZN WEB-DL 1080p Latino pelicula full hd, Borat Subsequent Moviefilm (2020) AMZN WEB-DL 1080p Latino mega latino, Borat Subsequent Moviefilm (2020) AMZN WEB-DL 1080p Latino 4k latino, Borat Subsequent Moviefilm (2020) AMZN WEB-DL 1080p Latino pelicula completa, Borat Subsequent Moviefilm (2020) AMZN WEB-DL 1080p Latino descargar gratis, descargar Borat Subsequent Moviefilm (2020) AMZN WEB-DL 1080p Latino pelicula latino, Borat Subsequent Moviefilm (2020) AMZN WEB-DL 1080p Latino 1 link mega, Borat Subsequent Moviefilm (2020) AMZN WEB-DL 1080p Latino 1 link google drive, Borat Subsequent Moviefilm (2020) AMZN WEB-DL 1080p Latino hd 1080p latino.
Comentarios 0