Borat (2006) Full HD 1080p Latino – CMHDD

18 vistas
1 estrella2 estrellas3 estrellas4 estrellas5 estrellas (Ninguna valoración todavía)
Cargando...

Información de Borat (2006) Full HD 1080p Latino – CMHDD

Datos de la película

  • Calidad: Full 1080p
  • Audio: Español Latino AC3 5.1 BLURAY - Ingles DTS 5.1 BLURAY
  • Subtitulos: Español Latino SRT- FORZADOS SRT
  • Resolución: 1920x1080p
  • Formato: MKV
  • Codec: H.264
  • Encoder: Dracarys
  • Mediainfo: Clic para Mostrar Datos Ver
  • Format                      : Matroska
    Format version              : Version 4
    File size                   : 6.16 GiB
    Duration                    : 1 h 23 min
    Overall bit rate            : 10.5 Mb/s
    Movie name                  : Borat El Segundo mejor reportero del glorioso país Kazajistán viaja a América (2006) Full HD 1080p Latino - CMHDD
    Encoded date                : UTC 2020-10-10 00:05:45 / UTC 2018-02-07T05:41:57Z
    Writing application         : mkvmerge v51.0.0 ('I Wish') 64-bit
    Writing library             : libebml v1.4.0 + libmatroska v1.6.2 / Lavf57.7.2

    Video
    ID                          : 1
    Format                      : AVC
    Format/Info                 : Advanced Video Codec
    Format profile              : High@L4.1
    Format settings             : CABAC / 4 Ref Frames
    Format settings, CABAC      : Yes
    Format settings, Reference  : 4 frames
    Codec ID                    : V_MPEG4/ISO/AVC
    Duration                    : 1 h 23 min
    Bit rate                    : 8 349 kb/s
    Width                       : 1 920 pixels
    Height                      : 1 080 pixels
    Display aspect ratio        : 16:9
    Frame rate mode             : Constant
    Frame rate                  : 23.976 (24000/1001) FPS
    Color space                 : YUV
    Chroma subsampling          : 4:2:0
    Bit depth                   : 8 bits
    Scan type                   : Progressive
    Bits/(Pixel*Frame)          : 0.168
    Stream size                 : 4.89 GiB (79%)
    Writing library             : x264 core 148 r2708 86b7198
    Encoding settings           : cabac=1 / ref=4 / deblock=1:0:0 / analyse=0x3:0x133 / me=esa / subme=10 / psy=1 / psy_rd=1.00:0.00 / mixed_ref=1 / me_range=24 / chroma_me=1 / trellis=2 / 8x8dct=1 / cqm=0 / deadzone=21,11 / fast_pskip=1 / chroma_qp_offset=-2 / threads=34 / lookahead_threads=5 / sliced_threads=0 / nr=0 / decimate=1 / interlaced=0 / bluray_compat=0 / constrained_intra=0 / bframes=8 / b_pyramid=2 / b_adapt=2 / b_bias=0 / direct=3 / weightb=1 / open_gop=0 / weightp=2 / keyint=240 / keyint_min=24 / scenecut=40 / intra_refresh=0 / rc_lookahead=60 / rc=crf / mbtree=1 / crf=20.0 / qcomp=0.60 / qpmin=0 / qpmax=69 / qpstep=4 / vbv_maxrate=62500 / vbv_bufsize=78125 / crf_max=0.0 / nal_hrd=none / filler=0 / ip_ratio=1.40 / aq=1:1.00
    Language                    : English
    Default                     : Yes
    Forced                      : No
    Color range                 : Limited
    Color primaries             : BT.709
    Transfer characteristics    : BT.709
    Matrix coefficients         : BT.709
    Statistics Tags Issue       : mkvmerge v51.0.0 ('I Wish') 64-bit 2020-10-10 00:05:45 / mkvmerge v51.0.0 ('I Wish') 64-bit 2020-10-10 00:05:45 / UTC 2018-02-07T05:41:57Z
    FromStats_BitRate           : 8525572
    FromStats_Duration          : 01:23:48.023000000
    FromStats_FrameCount        : 120552
    FromStats_StreamSize        : 5358346907
    Duration_Source             : General_Duration

    Audio #1
    ID                          : 2
    Format                      : AC-3
    Format/Info                 : Audio Coding 3
    Commercial name             : Dolby Digital
    Codec ID                    : A_AC3
    Duration                    : 1 h 23 min
    Bit rate mode               : Constant
    Bit rate                    : 448 kb/s
    Channel(s)                  : 6 channels
    Channel layout              : L R C LFE Ls Rs
    Sampling rate               : 48.0 kHz
    Frame rate                  : 31.250 FPS (1536 SPF)
    Compression mode            : Lossy
    Stream size                 : 269 MiB (4%)
    Language                    : Spanish
    Service kind                : Complete Main
    Default                     : Yes
    Forced                      : No
    Statistics Tags Issue       : mkvmerge v51.0.0 ('I Wish') 64-bit 2020-10-10 00:05:45 / mkvmerge v51.0.0 ('I Wish') 64-bit 2020-10-10 00:05:45 / UTC 2018-02-07T05:41:57Z
    FromStats_BitRate           : 448000
    FromStats_Duration          : 01:23:48.096000000
    FromStats_FrameCount        : 157128
    FromStats_StreamSize        : 281573376
    Duration_Source             : General_Duration

    Audio #2
    ID                          : 3
    Format                      : DTS
    Format/Info                 : Digital Theater Systems
    Codec ID                    : A_DTS
    Duration                    : 1 h 23 min
    Bit rate mode               : Constant
    Bit rate                    : 1 509 kb/s
    Channel(s)                  : 6 channels
    Channel layout              : C L R Ls Rs LFE
    Sampling rate               : 48.0 kHz
    Frame rate                  : 93.750 FPS (512 SPF)
    Bit depth                   : 24 bits
    Compression mode            : Lossy
    Stream size                 : 904 MiB (14%)
    Language                    : English
    Default                     : No
    Forced                      : No
    Statistics Tags Issue       : mkvmerge v51.0.0 ('I Wish') 64-bit 2020-10-10 00:05:45 / mkvmerge v51.0.0 ('I Wish') 64-bit 2020-10-10 00:05:45 / UTC 2018-02-07T05:41:57Z
    FromStats_BitRate           : 1509000
    FromStats_Duration          : 01:23:48.064000000
    FromStats_FrameCount        : 471381
    FromStats_StreamSize        : 948418572
    Duration_Source             : General_Duration

    Text #1
    ID                          : 4
    Format                      : PGS
    Muxing mode                 : zlib
    Codec ID                    : S_HDMV/PGS
    Codec ID/Info               : Picture based subtitle format used on BDs/HD-DVDs
    Language                    : Spanish
    Default                     : No
    Forced                      : No
    Statistics Tags Issue       : mkvmerge v51.0.0 ('I Wish') 64-bit 2020-10-10 00:05:45 / mkvmerge v51.0.0 ('I Wish') 64-bit 2020-10-10 00:05:45 / UTC 2018-02-07T05:41:57Z
    FromStats_BitRate           : 66822
    FromStats_Duration          : 01:23:12.201000000
    FromStats_FrameCount        : 2446
    FromStats_StreamSize        : 41698963

    Text #2
    ID                          : 5
    Format                      : UTF-8
    Codec ID                    : S_TEXT/UTF8
    Codec ID/Info               : UTF-8 Plain Text
    Language                    : Spanish
    Default                     : No
    Forced                      : No
    Statistics Tags Issue       : mkvmerge v51.0.0 ('I Wish') 64-bit 2020-10-10 00:05:45 / mkvmerge v51.0.0 ('I Wish') 64-bit 2020-10-10 00:05:45 / UTC 2018-02-07T05:41:57Z
    FromStats_BitRate           : 66
    FromStats_Duration          : 01:23:19.828000000
    FromStats_FrameCount        : 1187
    FromStats_StreamSize        : 41256

    Text #3
    ID                          : 6
    Format                      : UTF-8
    Codec ID                    : S_TEXT/UTF8
    Codec ID/Info               : UTF-8 Plain Text
    Language                    : Spanish
    Default                     : Yes
    Forced                      : No
    Statistics Tags Issue       : mkvmerge v51.0.0 ('I Wish') 64-bit 2020-10-10 00:05:45 / mkvmerge v51.0.0 ('I Wish') 64-bit 2020-10-10 00:05:45 / UTC 2018-02-07T05:41:57Z
    FromStats_BitRate           : 24
    FromStats_Duration          : 00:01:11.196000000
    FromStats_FrameCount        : 6
    FromStats_StreamSize        : 218

    Menu
    00:00:00.000                : :Chapter 1
    00:03:52.482                : :Chapter 2
    00:06:20.797                : :Chapter 3
    00:10:37.971                : :Chapter 4
    00:14:12.060                : :Chapter 5
    00:17:50.152                : :Chapter 6
    00:19:31.879                : :Chapter 7
    00:23:50.220                : :Chapter 8
    00:26:21.205                : :Chapter 9
    00:30:03.093                : :Chapter 10
    00:33:47.567                : :Chapter 11
    00:38:02.864                : :Chapter 12
    00:41:27.694                : :Chapter 13
    00:43:47.917                : :Chapter 14
    00:50:01.373                : :Chapter 15
    00:52:36.654                : :Chapter 16
    00:55:09.181                : :Chapter 17
    00:58:21.331                : :Chapter 18
    01:01:22.512                : :Chapter 19
    01:06:58.723                : :Chapter 20
    01:11:12.059                : :Chapter 21
    01:13:41.500                : :Chapter 22
    01:16:48.521                : :Chapter 23
    01:19:02.613                : :Chapter 24

  • Peso: 6.16 GiB

Sinopsis

Sacha Baron Cohen, el peculiar protagonista de «Ali G anda suelto», interpreta a Borat, un reportero de Kazajistán. Por orden de su gobierno, el periodista va a Estados Unidos para rodar un documental pedagógico, que debe recoger las mejores enseñanzas de los USA para que su país las aproveche. Pero el trabajo no será tan fácil como parece…

Ficha técnica

  • Titulo original: Borat: Cultural Learnings of America for Make Benefit Glorious Nation of Kazakhstan
  • Fecha de lanzamiento: 01-11-2006 (United Kingdom, United States of America)
  • Director: Larry Charles
  • Género: Comedia, FULL 1080p Plateadas
  • Puntuación: 0.0 0 votos
  • Duración:
    1h 24m

Video trailer de la película

Enlaces de descarga

Rip de Bluray

Descargar Borat (2006) Full HD 1080p Latino – CMHDD




Aportes de DPeliculasHDmega la pass es:dpeliculashdmega.org Aportes de CinemaniaHD la pass es:cinemaniahdd.com
Guardado en : Comedia , FULL 1080p Plateadas

Películas relacionadas

Comentarios 0