×

¿Problemas para descargar con Mozilla, EDGE? Deshabilita la opción "Abrir vinculos en una pestaña nueva" tal como lo muestra ésta imagen.

La Noche De Las Nerds (2019) REMUX 1080p Español

791 vistas

Información de La Noche De Las Nerds (2019) REMUX 1080p Español

Datos de la película

  • Calidad: Full 1080p
  • Audio: Se especifica abajo de la Sinopsis
  • Subtitulos: Español Latino PGS - Ingles PGS
  • Resolución: 1920x1080p
  • Formato: MKV
  • Codec: H.264
  • Encoder: CinefiloCool
  • Mediainfo: Clic para Mostrar Datos Ver
  • Booksmart (2019) REMUX 1080p Lat-Cast-CMHDD.mkv
    Format                      : Matroska
    Format version              : Version 4
    File size                   : 26.9 GiB
    Duration                    : 1 h 42 min
    Overall bit rate mode       : Variable
    Overall bit rate            : 37.6 Mb/s
    Movie name                  : Booksmart (2019) CinemaniaHDD.Net
    Encoded date                : UTC 2019-10-12 23:33:53
    Writing application         : mkvmerge v38.0.0 ('The Silent Type') 64-bit
    Writing library             : libebml v1.3.9 + libmatroska v1.5.2
    Attachments                 : CINEMANIAHD.png

    Video
    ID                          : 1
    Format                      : AVC
    Format/Info                 : Advanced Video Codec
    Format profile              : High@L4.1
    Format settings             : CABAC / 4 Ref Frames
    Format settings, CABAC      : Yes
    Format settings, ReFrames   : 4 frames
    Codec ID                    : V_MPEG4/ISO/AVC
    Duration                    : 1 h 42 min
    Bit rate mode               : Variable
    Bit rate                    : 33.4 Mb/s
    Maximum bit rate            : 37.0 Mb/s
    Width                       : 1 920 pixels
    Height                      : 1 080 pixels
    Display aspect ratio        : 16:9
    Frame rate mode             : Constant
    Frame rate                  : 23.976 (24000/1001) FPS
    Color space                 : YUV
    Chroma subsampling          : 4:2:0
    Bit depth                   : 8 bits
    Scan type                   : Progressive
    Bits/(Pixel*Frame)          : 0.672
    Stream size                 : 23.9 GiB (89%)
    Title                       : Full HD1080p [REMUX]
    Default                     : Yes
    Forced                      : No

    Audio #1
    ID                          : 2
    Format                      : AC-3
    Format/Info                 : Audio Coding 3
    Commercial name             : Dolby Digital
    Codec ID                    : A_AC3
    Duration                    : 1 h 42 min
    Bit rate mode               : Constant
    Bit rate                    : 256 kb/s
    Channel(s)                  : 2 channels
    Channel layout              : L R
    Sampling rate               : 48.0 kHz
    Frame rate                  : 31.250 FPS (1536 SPF)
    Bit depth                   : 16 bits
    Compression mode            : Lossy
    Stream size                 : 187 MiB (1%)
    Title                       : AC3_2.0_DVD_Lat
    Language                    : Spanish
    Service kind                : Complete Main
    Default                     : Yes
    Forced                      : Yes

    Audio #2
    ID                          : 3
    Format                      : DTS XLL
    Format/Info                 : Digital Theater Systems
    Commercial name             : DTS-HD Master Audio
    Codec ID                    : A_DTS
    Duration                    : 1 h 42 min
    Bit rate mode               : Variable
    Bit rate                    : 3 639 kb/s
    Channel(s)                  : 6 channels
    Channel layout              : C L R Ls Rs LFE
    Sampling rate               : 48.0 kHz
    Frame rate                  : 93.750 FPS (512 SPF)
    Bit depth                   : 24 bits
    Compression mode            : Lossless
    Stream size                 : 2.60 GiB (10%)
    Title                       : DTS-HD_5.1_Bluray_Eng
    Language                    : English
    Default                     : No
    Forced                      : No

    Audio #3
    ID                          : 4
    Format                      : AC-3
    Format/Info                 : Audio Coding 3
    Commercial name             : Dolby Digital
    Codec ID                    : A_AC3
    Duration                    : 1 h 42 min
    Bit rate mode               : Constant
    Bit rate                    : 256 kb/s
    Channel(s)                  : 2 channels
    Channel layout              : L R
    Sampling rate               : 48.0 kHz
    Frame rate                  : 31.250 FPS (1536 SPF)
    Bit depth                   : 16 bits
    Compression mode            : Lossy
    Stream size                 : 187 MiB (1%)
    Title                       : AC3_2.0_DVD_Cast
    Language                    : Spanish
    Service kind                : Complete Main
    Default                     : No
    Forced                      : No

    Text #1
    ID                          : 5
    Format                      : PGS
    Muxing mode                 : zlib
    Codec ID                    : S_HDMV/PGS
    Codec ID/Info               : Picture based subtitle format used on BDs/HD-DVDs
    Duration                    : 1 h 42 min
    Bit rate                    : 49.2 kb/s
    Count of elements           : 4048
    Stream size                 : 35.9 MiB (0%)
    Title                       : Sub_Esp [PGS]
    Language                    : Spanish
    Default                     : No
    Forced                      : No

    Text #2
    ID                          : 6
    Format                      : PGS
    Muxing mode                 : zlib
    Codec ID                    : S_HDMV/PGS
    Codec ID/Info               : Picture based subtitle format used on BDs/HD-DVDs
    Duration                    : 1 h 42 min
    Bit rate                    : 61.2 kb/s
    Count of elements           : 4760
    Stream size                 : 44.7 MiB (0%)
    Title                       : Sub_Eng [PGS]
    Language                    : English
    Default                     : No
    Forced                      : No

    Text #3
    ID                          : 7
    Format                      : UTF-8
    Codec ID                    : S_TEXT/UTF8
    Codec ID/Info               : UTF-8 Plain Text
    Duration                    : 1 h 20 min
    Bit rate                    : 0 b/s
    Count of elements           : 7
    Stream size                 : 142 Bytes (0%)
    Title                       : Sub_Forzados
    Language                    : Spanish
    Default                     : Yes
    Forced                      : Yes

    Text #4
    ID                          : 8
    Format                      : UTF-8
    Codec ID                    : S_TEXT/UTF8
    Codec ID/Info               : UTF-8 Plain Text
    Duration                    : 1 h 42 min
    Bit rate                    : 81 b/s
    Count of elements           : 2021
    Stream size                 : 61.2 KiB (0%)
    Title                       : Sub_Esp
    Language                    : Spanish
    Default                     : No
    Forced                      : No

    Menu
    00:00:00.000                : en:Chapter 01
    00:05:59.359                : en:Chapter 02
    00:09:51.632                : en:Chapter 03
    00:15:51.742                : en:Chapter 04
    00:18:36.448                : en:Chapter 05
    00:23:19.523                : en:Chapter 06
    00:27:44.704                : en:Chapter 07
    00:31:02.110                : en:Chapter 08
    00:33:46.733                : en:Chapter 09
    00:38:02.738                : en:Chapter 10
    00:44:57.403                : en:Chapter 11
    00:47:52.160                : en:Chapter 12
    00:52:21.680                : en:Chapter 13
    00:55:29.826                : en:Chapter 14
    00:59:50.211                : en:Chapter 15
    01:06:33.280                : en:Chapter 16
    01:10:53.874                : en:Chapter 17
    01:14:43.228                : en:Chapter 18
    01:18:46.179                : en:Chapter 19
    01:21:52.115                : en:Chapter 20
    01:24:41.409                : en:Chapter 21
    01:27:13.019                : en:Chapter 22
    01:30:14.325                : en:Chapter 23
    01:36:05.885                : en:Chapter 24

  • Peso: 26.9 GiB

Sinopsis

Descargar La Noche De Las Nerds (2019) REMUX 1080p Español. Dos excelentes estudiantes y grandes amigas, en la víspera de su graduación de su instituto, de repente se dan cuenta de que podrían haberse esforzado algo menos en clase y haberse divertido más. Así que deciden hacer algo al respecto para compensar tanto estudio y tan poca diversión: recuperar los años perdidos en una noche loca.

Audio Español Latino & Castellano AC3 2.0 DVD – Ingles DTS-HD 5.1 Bluray

Actualizado con audio latino 🙂

Ficha técnica

Video trailer de la película

Enlaces de descarga

Rip de Bluray

Descargar La Noche De Las Nerds (2019) REMUX 1080p Español




Aportes de DPeliculasHDmega la pass es:dpeliculashdmega.org Aportes de CinemaniaHD la pass es:cinemaniahdd.com
Guardado en : Comedia , Drama , Remux

Películas relacionadas

  • Zola (2020) HD 1080p Latino

    Zola (2020) HD 1080p Latino

    2020
    Zola (2020) HD 1080p Latino

    1h 26m 2020

    Descargar Zola (2020) HD 1080p Latino. Una camarera accede a acompañar a una bailarina exótica, su...

    Director: Sheri Davani

    Género: Comedia

    Actores: Ts Madison

  • Zola (2020) PLACEBO Full HD 1080p Latino

    Zola (2020) PLACEBO Full HD 1080p Latino

    2020
    Zola (2020) PLACEBO Full HD 1080p Latino

    1h 26m 2020

    Descargar Zola (2020) PLACEBO Full HD 1080p Latino. Una camarera accede a acompañar a una bailarina...

    Director: Sheri Davani

    Género: Comedia

    Actores: Ts Madison

  • Zola (2020) REMUX 1080p Latino

    Zola (2020) REMUX 1080p Latino

    2020
    Zola (2020) REMUX 1080p Latino

    1h 26m 2020

    Descargar Zola (2020) REMUX 1080p Latino. Una camarera accede a acompañar a una bailarina exótica,...

    Director: Sheri Davani

    Género: Comedia

    Actores: Ts Madison

descargar La Noche De Las Nerds (2019) REMUX 1080p Español Full 1080p 1080p gratis, La Noche De Las Nerds (2019) REMUX 1080p Español Full 1080p mega 1 link, La Noche De Las Nerds (2019) REMUX 1080p Español Full 1080p pelicula completa, descargar La Noche De Las Nerds (2019) REMUX 1080p Español Full 1080p gratis en mega.

La Noche De Las Nerds (2019) REMUX 1080p Español pelicula full hd, La Noche De Las Nerds (2019) REMUX 1080p Español mega latino, La Noche De Las Nerds (2019) REMUX 1080p Español 4k latino, La Noche De Las Nerds (2019) REMUX 1080p Español pelicula completa, La Noche De Las Nerds (2019) REMUX 1080p Español descargar gratis, descargar La Noche De Las Nerds (2019) REMUX 1080p Español pelicula latino, La Noche De Las Nerds (2019) REMUX 1080p Español 1 link mega, La Noche De Las Nerds (2019) REMUX 1080p Español 1 link google drive, La Noche De Las Nerds (2019) REMUX 1080p Español hd 1080p latino.
Comentarios 0