×

¿Problemas para descargar con Mozilla, EDGE? Deshabilita la opción "Abrir vinculos en una pestaña nueva" tal como lo muestra ésta imagen.

La Noche De Las Nerds (2019) Full HD 1080p Español

1.862 vistas

Información de La Noche De Las Nerds (2019) Full HD 1080p Español

Datos de la película

  • Calidad: Full 1080p
  • Audio: Se especifica abajo de la Sinopsis
  • Subtitulos: Español Latino PGS - Ingles PGS
  • Resolución: 1920x1080p
  • Formato: MKV
  • Codec: H.264
  • Encoder: CinefiloCool
  • Mediainfo: Clic para Mostrar Datos Ver
  • Booksmart (2019) Full HD 1080p Lat&Cast-CMHDD.mkv
    Format                      : Matroska
    Format version              : Version 4
    File size                   : 4.71 GiB
    Duration                    : 1 h 42 min
    Overall bit rate            : 6 602 kb/s
    Movie name                  : Booksmart (2019) CinemaniaHDD.Net
    Encoded date                : UTC 2019-10-09 20:36:58
    Writing application         : mkvmerge v38.0.0 ('The Silent Type') 64-bit
    Writing library             : libebml v1.3.9 + libmatroska v1.5.2
    Attachments                 : CINEMANIAHD.png

    Video
    ID                          : 1
    Format                      : AVC
    Format/Info                 : Advanced Video Codec
    Format profile              : High@L4.1
    Format settings             : CABAC / 4 Ref Frames
    Format settings, CABAC      : Yes
    Format settings, ReFrames   : 4 frames
    Codec ID                    : V_MPEG4/ISO/AVC
    Duration                    : 1 h 42 min
    Bit rate                    : 4 533 kb/s
    Width                       : 1 920 pixels
    Height                      : 1 080 pixels
    Display aspect ratio        : 16:9
    Frame rate mode             : Constant
    Frame rate                  : 23.976 (24000/1001) FPS
    Color space                 : YUV
    Chroma subsampling          : 4:2:0
    Bit depth                   : 8 bits
    Scan type                   : Progressive
    Bits/(Pixel*Frame)          : 0.091
    Stream size                 : 3.24 GiB (69%)
    Title                       : Full HD1080p [Bluray]
    Writing library             : x264 core 157 r2935 545de2f
    Encoding settings           : cabac=1 / ref=4 / deblock=1:-1:-1 / analyse=0x3:0x133 / me=tesa / subme=11 / psy=1 / psy_rd=1.00:0.15 / mixed_ref=1 / me_range=24 / chroma_me=1 / trellis=2 / 8x8dct=1 / cqm=0 / deadzone=21,11 / fast_pskip=0 / chroma_qp_offset=-3 / threads=34 / lookahead_threads=8 / sliced_threads=0 / nr=0 / decimate=1 / interlaced=0 / bluray_compat=0 / constrained_intra=0 / bframes=16 / b_pyramid=2 / b_adapt=2 / b_bias=0 / direct=3 / weightb=1 / open_gop=0 / weightp=2 / keyint=240 / keyint_min=24 / scenecut=40 / intra_refresh=0 / rc_lookahead=60 / rc=crf / mbtree=1 / crf=20.0 / qcomp=0.60 / qpmin=0 / qpmax=69 / qpstep=4 / vbv_maxrate=62500 / vbv_bufsize=78125 / crf_max=0.0 / nal_hrd=none / filler=0 / ip_ratio=1.40 / aq=1:1.00
    Default                     : Yes
    Forced                      : No
    Color range                 : Limited
    Color primaries             : BT.709
    Transfer characteristics    : BT.709
    Matrix coefficients         : BT.709

    Audio #1
    ID                          : 2
    Format                      : AC-3
    Format/Info                 : Audio Coding 3
    Commercial name             : Dolby Digital
    Codec ID                    : A_AC3
    Duration                    : 1 h 42 min
    Bit rate mode               : Constant
    Bit rate                    : 256 kb/s
    Channel(s)                  : 2 channels
    Channel layout              : L R
    Sampling rate               : 48.0 kHz
    Frame rate                  : 31.250 FPS (1536 SPF)
    Bit depth                   : 16 bits
    Compression mode            : Lossy
    Stream size                 : 187 MiB (4%)
    Title                       : AC3_2.0_DVD_Lat
    Language                    : Spanish
    Service kind                : Complete Main
    Default                     : Yes
    Forced                      : Yes

    Audio #2
    ID                          : 3
    Format                      : DTS
    Format/Info                 : Digital Theater Systems
    Codec ID                    : A_DTS
    Duration                    : 1 h 42 min
    Bit rate mode               : Constant
    Bit rate                    : 1 509 kb/s
    Channel(s)                  : 6 channels
    Channel layout              : C L R Ls Rs LFE
    Sampling rate               : 48.0 kHz
    Frame rate                  : 93.750 FPS (512 SPF)
    Bit depth                   : 24 bits
    Compression mode            : Lossy
    Stream size                 : 1.08 GiB (23%)
    Title                       : DTS_5.1_Bluray_Eng
    Language                    : English
    Default                     : No
    Forced                      : No

    Audio #3
    ID                          : 4
    Format                      : AC-3
    Format/Info                 : Audio Coding 3
    Commercial name             : Dolby Digital
    Codec ID                    : A_AC3
    Duration                    : 1 h 42 min
    Bit rate mode               : Constant
    Bit rate                    : 256 kb/s
    Channel(s)                  : 2 channels
    Channel layout              : L R
    Sampling rate               : 48.0 kHz
    Frame rate                  : 31.250 FPS (1536 SPF)
    Bit depth                   : 16 bits
    Compression mode            : Lossy
    Stream size                 : 187 MiB (4%)
    Title                       : AC3_2.0_DVD_Cast
    Language                    : Spanish
    Service kind                : Complete Main
    Default                     : No
    Forced                      : No

    Text #1
    ID                          : 5
    Format                      : PGS
    Muxing mode                 : zlib
    Codec ID                    : S_HDMV/PGS
    Codec ID/Info               : Picture based subtitle format used on BDs/HD-DVDs
    Duration                    : 1 h 42 min
    Bit rate                    : 49.2 kb/s
    Count of elements           : 4048
    Stream size                 : 35.9 MiB (1%)
    Title                       : Sub_Esp [PGS]
    Language                    : Spanish
    Default                     : No
    Forced                      : No

    Text #2
    ID                          : 6
    Format                      : PGS
    Muxing mode                 : zlib
    Codec ID                    : S_HDMV/PGS
    Codec ID/Info               : Picture based subtitle format used on BDs/HD-DVDs
    Duration                    : 1 h 42 min
    Bit rate                    : 61.2 kb/s
    Count of elements           : 4760
    Stream size                 : 44.7 MiB (1%)
    Title                       : Sub_Eng [PGS]
    Language                    : English
    Default                     : No
    Forced                      : No

    Text #3
    ID                          : 7
    Format                      : UTF-8
    Codec ID                    : S_TEXT/UTF8
    Codec ID/Info               : UTF-8 Plain Text
    Duration                    : 1 h 20 min
    Bit rate                    : 0 b/s
    Count of elements           : 7
    Stream size                 : 142 Bytes (0%)
    Title                       : Sub_Forzados
    Language                    : Spanish
    Default                     : Yes
    Forced                      : Yes

    Text #4
    ID                          : 8
    Format                      : UTF-8
    Codec ID                    : S_TEXT/UTF8
    Codec ID/Info               : UTF-8 Plain Text
    Duration                    : 1 h 42 min
    Bit rate                    : 81 b/s
    Count of elements           : 2021
    Stream size                 : 61.2 KiB (0%)
    Title                       : Sub_Esp
    Language                    : Spanish
    Default                     : No
    Forced                      : No

    Menu
    00:00:00.000                : :Chapter 1
    00:05:59.359                : :Chapter 2
    00:09:51.633                : :Chapter 3
    00:15:51.868                : :Chapter 4
    00:18:36.449                : :Chapter 5
    00:23:19.607                : :Chapter 6
    00:27:44.705                : :Chapter 7
    00:31:02.235                : :Chapter 8
    00:33:46.816                : :Chapter 9
    00:38:02.739                : :Chapter 10
    00:44:57.528                : :Chapter 11
    00:47:52.161                : :Chapter 12
    00:52:21.805                : :Chapter 13
    00:55:29.827                : :Chapter 14
    00:59:50.212                : :Chapter 15
    01:06:33.281                : :Chapter 16
    01:10:53.875                : :Chapter 17
    01:14:43.229                : :Chapter 18
    01:18:46.180                : :Chapter 19
    01:21:52.116                : :Chapter 20
    01:24:41.410                : :Chapter 21
    01:27:13.145                : :Chapter 22
    01:30:14.326                : :Chapter 23
    01:36:06.010                : :Chapter 24

  • Peso: 4.71 GiB

Sinopsis

Descargar La Noche De Las Nerds (2019) Full HD 1080p Español. Dos excelentes estudiantes y grandes amigas, en la víspera de su graduación de su instituto, de repente se dan cuenta de que podrían haberse esforzado algo menos en clase y haberse divertido más. Así que deciden hacer algo al respecto para compensar tanto estudio y tan poca diversión: recuperar los años perdidos en una noche loca.

Audio Español Latino & Castellano AC3 2.0 DVD – Ingles DTS 5.1 Bluray

Actualizado con audio latino 🙂

Ficha técnica

Video trailer de la película

Enlaces de descarga

Rip de Bluray

Descargar La Noche De Las Nerds (2019) Full HD 1080p Español




Aportes de DPeliculasHDmega la pass es:dpeliculashdmega.org Aportes de CinemaniaHD la pass es:cinemaniahdd.com

Películas relacionadas

descargar La Noche De Las Nerds (2019) Full HD 1080p Español Full 1080p 1080p gratis, La Noche De Las Nerds (2019) Full HD 1080p Español Full 1080p mega 1 link, La Noche De Las Nerds (2019) Full HD 1080p Español Full 1080p pelicula completa, descargar La Noche De Las Nerds (2019) Full HD 1080p Español Full 1080p gratis en mega.

La Noche De Las Nerds (2019) Full HD 1080p Español pelicula full hd, La Noche De Las Nerds (2019) Full HD 1080p Español mega latino, La Noche De Las Nerds (2019) Full HD 1080p Español 4k latino, La Noche De Las Nerds (2019) Full HD 1080p Español pelicula completa, La Noche De Las Nerds (2019) Full HD 1080p Español descargar gratis, descargar La Noche De Las Nerds (2019) Full HD 1080p Español pelicula latino, La Noche De Las Nerds (2019) Full HD 1080p Español 1 link mega, La Noche De Las Nerds (2019) Full HD 1080p Español 1 link google drive, La Noche De Las Nerds (2019) Full HD 1080p Español hd 1080p latino.
Comentarios 0