×

¿Problemas para descargar con Mozilla, EDGE? Deshabilita la opción "Abrir vinculos en una pestaña nueva" tal como lo muestra ésta imagen.

Boogie nights (1997) Full HD 1080p Latino

50 vistas

Información de Boogie nights (1997) Full HD 1080p Latino

Datos de la película

  • Calidad: Full 1080p
  • Audio: Español Latino AC3 2.0 WEB-DL - Ingles AC3 5.1 BLURAY
  • Subtitulos: Español Latino PGS - Ingles PGS
  • Resolución: 1920x1080p
  • Formato: MKV
  • Codec: H.264
  • Encoder: CinefiloCool
  • Mediainfo: Clic para Mostrar Datos Ver
  • Boogie Nights (1997) Full HD 1080p Latino-CMHDD.mkv
    Format                      : Matroska
    Format version              : Version 4
    File size                   : 7.42 GiB
    Duration                    : 2 h 35 min
    Overall bit rate            : 6 829 kb/s
    Movie name                  : Boogie Nights (1997) CinemaniaHDD.Net
    Encoded date                : UTC 2023-02-21 15:50:47
    Writing application         : mkvmerge v56.1.0 ('My Friend') 64-bit
    Writing library             : libebml v1.4.2 + libmatroska v1.6.4
    Attachments                 : CINEMANIAHD.png

    Video
    ID                          : 1
    Format                      : AVC
    Format/Info                 : Advanced Video Codec
    Format profile              : High@L4.1
    Format settings             : CABAC / 4 Ref Frames
    Format settings, CABAC      : Yes
    Format settings, Reference  : 4 frames
    Codec ID                    : V_MPEG4/ISO/AVC
    Duration                    : 2 h 35 min
    Bit rate                    : 5 900 kb/s
    Width                       : 1 920 pixels
    Height                      : 1 080 pixels
    Display aspect ratio        : 16:9
    Frame rate mode             : Constant
    Frame rate                  : 23.976 (24000/1001) FPS
    Color space                 : YUV
    Chroma subsampling          : 4:2:0
    Bit depth                   : 8 bits
    Scan type                   : Progressive
    Bits/(Pixel*Frame)          : 0.119
    Stream size                 : 6.41 GiB (86%)
    Title                       : Full HD1080p [CinemaniaHDD]
    Writing library             : x264 core 163 r3059 b684ebe0
    Encoding settings           : cabac=1 / ref=4 / deblock=1:-1:-1 / analyse=0x3:0x133 / me=tesa / subme=11 / psy=1 / psy_rd=1.00:0.15 / mixed_ref=1 / me_range=24 / chroma_me=1 / trellis=2 / 8x8dct=1 / cqm=0 / deadzone=21,11 / fast_pskip=0 / chroma_qp_offset=-3 / threads=24 / lookahead_threads=6 / sliced_threads=0 / nr=0 / decimate=1 / interlaced=0 / bluray_compat=0 / constrained_intra=0 / bframes=16 / b_pyramid=2 / b_adapt=2 / b_bias=0 / direct=3 / weightb=1 / open_gop=0 / weightp=2 / keyint=240 / keyint_min=24 / scenecut=40 / intra_refresh=0 / rc_lookahead=60 / rc=crf / mbtree=1 / crf=20.0 / qcomp=0.60 / qpmin=0 / qpmax=69 / qpstep=4 / vbv_maxrate=62500 / vbv_bufsize=78125 / crf_max=0.0 / nal_hrd=none / filler=0 / ip_ratio=1.40 / aq=1:1.00
    Default                     : Yes
    Forced                      : Yes
    Color range                 : Limited
    Color primaries             : BT.709
    Transfer characteristics    : BT.709
    Matrix coefficients         : BT.709

    Audio #1
    ID                          : 2
    Format                      : AC-3
    Format/Info                 : Audio Coding 3
    Commercial name             : Dolby Digital
    Codec ID                    : A_AC3
    Duration                    : 2 h 35 min
    Bit rate mode               : Constant
    Bit rate                    : 256 kb/s
    Channel(s)                  : 2 channels
    Channel layout              : L R
    Sampling rate               : 48.0 kHz
    Frame rate                  : 31.250 FPS (1536 SPF)
    Compression mode            : Lossy
    Stream size                 : 285 MiB (4%)
    Title                       : Español Latino [CinemaniaHDD]
    Language                    : Spanish
    Service kind                : Complete Main
    Default                     : Yes
    Forced                      : No

    Audio #2
    ID                          : 3
    Format                      : AC-3
    Format/Info                 : Audio Coding 3
    Commercial name             : Dolby Digital
    Codec ID                    : A_AC3
    Duration                    : 2 h 35 min
    Bit rate mode               : Constant
    Bit rate                    : 640 kb/s
    Channel(s)                  : 6 channels
    Channel layout              : L R C LFE Ls Rs
    Sampling rate               : 48.0 kHz
    Frame rate                  : 31.250 FPS (1536 SPF)
    Compression mode            : Lossy
    Stream size                 : 712 MiB (9%)
    Title                       : Ingles AC3 [CinemaniaHDD]
    Language                    : English
    Service kind                : Complete Main
    Default                     : No
    Forced                      : No

    Text #1
    ID                          : 4
    Format                      : PGS
    Muxing mode                 : zlib
    Codec ID                    : S_HDMV/PGS
    Codec ID/Info               : Picture based subtitle format used on BDs/HD-DVDs
    Duration                    : 2 h 34 min
    Bit rate                    : 28.0 kb/s
    Count of elements           : 3884
    Stream size                 : 31.0 MiB (0%)
    Title                       : Español-PGS [CinemaniaHDD]
    Language                    : Spanish
    Default                     : No
    Forced                      : No

    Text #2
    ID                          : 5
    Format                      : PGS
    Muxing mode                 : zlib
    Codec ID                    : S_HDMV/PGS
    Codec ID/Info               : Picture based subtitle format used on BDs/HD-DVDs
    Duration                    : 2 h 34 min
    Bit rate                    : 41.0 kb/s
    Count of elements           : 4550
    Stream size                 : 45.2 MiB (1%)
    Title                       : Ingles-PGS [CinemaniaHDD]
    Language                    : English
    Default                     : No
    Forced                      : No

    Text #3
    ID                          : 6
    Format                      : UTF-8
    Codec ID                    : S_TEXT/UTF8
    Codec ID/Info               : UTF-8 Plain Text
    Duration                    : 2 h 20 min
    Bit rate                    : 0 b/s
    Count of elements           : 27
    Stream size                 : 819 Bytes (0%)
    Title                       : Forzados-SRT [CinemaniaHDD]
    Language                    : Spanish
    Default                     : Yes
    Forced                      : No

    Text #4
    ID                          : 7
    Format                      : UTF-8
    Codec ID                    : S_TEXT/UTF8
    Codec ID/Info               : UTF-8 Plain Text
    Duration                    : 2 h 34 min
    Bit rate                    : 52 b/s
    Count of elements           : 1943
    Stream size                 : 59.0 KiB (0%)
    Title                       : Español-SRT [CinemaniaHDD]
    Language                    : Spanish
    Default                     : No
    Forced                      : No

    Menu
    00:00:00.000                : Opening Logo/Boogie Nights
    00:08:13.868                : "The Sage"/Introductions
    00:12:45.473                : Breakfast at the Adams'
    00:14:09.849                : Buck's TK421
    00:21:07.140                : Coffee Shop
    00:23:32.119                : "Brand New Key"
    00:28:14.275                : "Mama Told Me..."/Jack's Party
    00:31:03.862                : The Colonel/"Spill the Wine"
    00:34:49.962                : "Lonely Boy"/Maggie
    00:36:16.507                : Little Bill/"Fooled Around..."
    00:38:38.983                : "I Think She's Sick"
    00:39:47.343                : Scotty/"You Sexy Thing"
    00:44:25.662                : First Sex Scene
    00:55:15.520                : "If You Need a Close Up"/"Boogie Shoes"
    00:57:35.577                : "Machine Gun"/Split Screen
    01:01:32.855                : Award Ceremony
    01:03:21.339                : 1978/Brock and Chest
    01:05:55.242                : Dirk's New House/"Gotta Give It Up"
    01:10:26.680                : Floyd Gondolli/"Driver's Seat"
    01:11:59.732                : Todd Parker
    01:15:38.992                : Godzilla vs. Mothra
    01:18:56.148                : Scotty and Dirk
    01:21:28.550                : Little Bill's New Year
    01:24:32.025                : Amber's Documentary
    01:29:18.728                : Jack and the Colonel
    01:33:34.317                : Johnny Doe
    01:39:07.191                : "The Touch"
    01:40:34.403                : Sequence D/"Compared to What"
    01:47:09.881                : Buck's Loan
    01:49:41.116                : Amber's Hearing
    01:53:15.830                : On the Lookout
    02:02:08.195                : The Donut Shop
    02:07:04.283                : Rashad Jackson/"Sister Christian"
    02:12:25.228                : Cosmo and "Jesse's Girl"
    02:19:50.840                : "God Only Knows"
    02:22:48.101                : "The Big Top"
    02:25:19.961                : The Last Shot

  • Peso: 7.42 GiB

Sinopsis

Descargar Boogie nights (1997) Full HD 1080p Latino. A los 17 años, un joven sexualmente bien dotado (Mark Wahlberg) es descubierto por un director veterano (Burt Reynolds), que lo transforma en una celebridad de la subcultura del mundo del porno en pleno apogeo de los 70. Sin embargo, la fama repentina puede pasar factura

Ficha técnica

Video trailer de la película

Enlaces de descarga

Rip de Bluray

Descargar Boogie nights (1997) Full HD 1080p Latino




Aportes de DPeliculasHDmega la pass es:dpeliculashdmega.org Aportes de CinemaniaHD la pass es:cinemaniahdd.com

Películas relacionadas

  • Jamaica bajo cero (1993) REMUX 1080p Latino

    Jamaica bajo cero (1993) REMUX 1080p Latino

    1993
    Jamaica bajo cero (1993) REMUX 1080p Latino

    1h 38m 1993

    Descargar Jamaica bajo cero (1993) REMUX 1080p Latino. Derice, Sanka, Junio Bevil y Yul son cuatro atletas...

    Director: Michael D. Moore

    Género: Aventura

    Actores: Winston Stona

  • Acoso Sexual (1994) REMUX 1080p Latino

    Acoso Sexual (1994) REMUX 1080p Latino

    1994
    Acoso Sexual (1994) REMUX 1080p Latino

    2h 3m 1994

    Descargar Acoso Sexual (1994) REMUX 1080p Latino. Tom Sanders es un maduro y atractivo ejecutivo que...

    Director: Shery Blanc

    Género: Crimen

    Actores: Wayne Duvall

  • El Rey De Las Sombras (2023) NF WEB-DL 1080p Latino

    El Rey De Las Sombras (2023) NF WEB-DL 1080p Latino

    2023
    El Rey De Las Sombras (2023) NF WEB-DL 1080p Latino

    1h 29m 2023

    Descargar El Rey De Las Sombras (2023) NF WEB-DL 1080p Latino. Tras la muerte de su padre, dos hermanastros...

    Director: Maxence Robin

    Género: Crimen

    Actores: Tatiana Rojo

  • Ruido Mental (2023) NF WEB-DL 1080p Latino

    Ruido Mental (2023) NF WEB-DL 1080p Latino

    2023
    Ruido Mental (2023) NF WEB-DL 1080p Latino

    1h 30m 2023

    Descargar Ruido Mental (2023) NF WEB-DL 1080p Latino. Matt, un influencer y padre del recién nacido...

    Director: Steffen Geypens

    Género: Drama

    Actores: Ward Kerremans

descargar Boogie nights (1997) Full HD 1080p Latino Full 1080p 1080p gratis, Boogie nights (1997) Full HD 1080p Latino Full 1080p mega 1 link, Boogie nights (1997) Full HD 1080p Latino Full 1080p pelicula completa, descargar Boogie nights (1997) Full HD 1080p Latino Full 1080p gratis en mega.

Boogie nights (1997) Full HD 1080p Latino pelicula full hd, Boogie nights (1997) Full HD 1080p Latino mega latino, Boogie nights (1997) Full HD 1080p Latino 4k latino, Boogie nights (1997) Full HD 1080p Latino pelicula completa, Boogie nights (1997) Full HD 1080p Latino descargar gratis, descargar Boogie nights (1997) Full HD 1080p Latino pelicula latino, Boogie nights (1997) Full HD 1080p Latino 1 link mega, Boogie nights (1997) Full HD 1080p Latino 1 link google drive, Boogie nights (1997) Full HD 1080p Latino hd 1080p latino.
Comentarios 0