×

¿Problemas para descargar con Mozilla, EDGE? Deshabilita la opción "Abrir vinculos en una pestaña nueva" tal como lo muestra ésta imagen.

Boo! (2019) WEB-DL 1080p Latino

1.133 vistas

Información de Boo! (2019) WEB-DL 1080p Latino

Datos de la película

  • Calidad: WEBDL
  • Audio: Español Latino AC3 2.0 iTunes - Ingles AC3 5.1 iTunes
  • Subtitulos: Español Latino SRT- FORZADOS SRT
  • Resolución: 1912x1026
  • Formato: MKV
  • Codec: H.264
  • Encoder: CinemaniaHD
  • Mediainfo: Clic para Mostrar Datos Ver
  • Boo (2018) WEB-DL 1080p Latino.mkv
    Format                      : Matroska
    Format version              : Version 4
    File size                   : 3.37 GiB
    Duration                    : 1 h 30 min
    Overall bit rate            : 5 341 kb/s
    Movie name                  : Boo (2018) WEB-DL 1080p Latino
    Encoded date                : UTC 2020-04-15 15:31:49
    Writing application         : mkvmerge v42.0.0 ('Overtime') 64-bit
    Writing library             : libebml v1.3.10 + libmatroska v1.5.2
    Cover                       : Yes
    Attachments                 : cover.jpg

    Video
    ID                          : 1
    Format                      : AVC
    Format/Info                 : Advanced Video Codec
    Format profile              : High@L4
    Format settings             : CABAC / 4 Ref Frames
    Format settings, CABAC      : Yes
    Format settings, ReFrames   : 4 frames
    Codec ID                    : V_MPEG4/ISO/AVC
    Duration                    : 1 h 30 min
    Bit rate                    : 4 827 kb/s
    Width                       : 1 912 pixels
    Height                      : 1 026 pixels
    Display aspect ratio        : 1.85:1
    Frame rate mode             : Constant
    Frame rate                  : 23.976 FPS
    Color space                 : YUV
    Chroma subsampling          : 4:2:0
    Bit depth                   : 8 bits
    Scan type                   : Progressive
    Bits/(Pixel*Frame)          : 0.103
    Stream size                 : 3.05 GiB (90%)
    Title                       : CinemaniaHDD
    Language                    : English
    Default                     : Yes
    Forced                      : No
    Color range                 : Limited
    Color primaries             : BT.709
    Transfer characteristics    : BT.709
    Matrix coefficients         : BT.709

    Audio #1
    ID                          : 2
    Format                      : AAC LC
    Format/Info                 : Advanced Audio Codec Low Complexity
    Codec ID                    : A_AAC-2
    Duration                    : 1 h 30 min
    Bit rate                    : 126 kb/s
    Channel(s)                  : 2 channels
    Channel layout              : L R
    Sampling rate               : 48.0 kHz
    Frame rate                  : 46.875 FPS (1024 SPF)
    Compression mode            : Lossy
    Delay relative to video     : -42 ms
    Stream size                 : 81.7 MiB (2%)
    Title                       : Español latino [CinemaniaHDD]
    Language                    : Spanish
    Default                     : Yes
    Forced                      : No

    Audio #2
    ID                          : 3
    Format                      : AC-3
    Format/Info                 : Audio Coding 3
    Commercial name             : Dolby Digital
    Codec ID                    : A_AC3
    Duration                    : 1 h 30 min
    Bit rate mode               : Constant
    Bit rate                    : 384 kb/s
    Channel(s)                  : 6 channels
    Channel layout              : L R C LFE Ls Rs
    Sampling rate               : 48.0 kHz
    Frame rate                  : 31.250 FPS (1536 SPF)
    Bit depth                   : 16 bits
    Compression mode            : Lossy
    Delay relative to video     : -42 ms
    Stream size                 : 248 MiB (7%)
    Title                       : Inglés [CinemaniaHDD]
    Language                    : English
    Service kind                : Complete Main
    Default                     : No
    Forced                      : No

    Text #1
    ID                          : 4
    Format                      : UTF-8
    Codec ID                    : S_TEXT/UTF8
    Codec ID/Info               : UTF-8 Plain Text
    Duration                    : 1 h 18 min
    Bit rate                    : 43 b/s
    Count of elements           : 781
    Stream size                 : 24.8 KiB (0%)
    Title                       : Español latino [CinemaniaHDD]
    Language                    : Spanish
    Default                     : Yes
    Forced                      : No

    Text #2
    ID                          : 5
    Format                      : UTF-8
    Codec ID                    : S_TEXT/UTF8
    Codec ID/Info               : UTF-8 Plain Text
    Duration                    : 1 h 9 min
    Bit rate                    : 0 b/s
    Count of elements           : 6
    Stream size                 : 120 Bytes (0%)
    Title                       : Forzados [CinemaniaHDD]
    Language                    : Spanish
    Default                     : No
    Forced                      : No

    Menu
    00:00:00.000                : en:Capítulo 1
    00:13:21.301                : en:Capítulo 2
    00:25:36.702                : en:Capítulo 3
    00:39:23.528                : en:Capítulo 4
    00:51:58.908                : en:Capítulo 5
    01:04:11.849                : en:Capítulo 6
    01:18:22.074                : en:Capítulo 7

  • Peso: 3.37 GiB

Sinopsis

Una serie de sucesos paranormales y peligrosos toman lugar en la casa de una familia tras encontrar una misteriosa hoja de papel en su puerta que contiene un mensaje aterrador: una maldición que fue hecha por el antiguo espíritu de Boo, un hombre que muchos años atrás se volvió loco y asesinó a toda su familia, suicidándose después. Al principio, el padre piensa que es sólo una broma de mal gusto de los vecinos, pero los niños saben que eso es más peligroso de lo que parece y por más que tratan de explicar la maldición nadie les cree: su familia dejó de ser unida desde hacía mucho. Ahora todos han ignorado todas las advertencias y poco a poco se hundirán en el peligroso mundo paranormal donde fantasmas y espíritus tratarán de acabar con sus vidas como sucedió en el pasado. ¡Boo! es la terrorífica historia de una familia rota que ahora trata de sobrevivir a la noche de Halloween y una maldición que intenta destruirlos.

Ficha técnica

Video trailer de la película

Enlaces de descarga

Rip de Bluray

Descargar Boo! (2019) WEB-DL 1080p Latino




Aportes de DPeliculasHDmega la pass es:dpeliculashdmega.org Aportes de CinemaniaHD la pass es:cinemaniahdd.com
Guardado en : Drama , Misterio , Suspenso , Terror

Películas relacionadas

descargar Boo! (2019) WEB-DL 1080p Latino WEBDL 1080p gratis, Boo! (2019) WEB-DL 1080p Latino WEBDL mega 1 link, Boo! (2019) WEB-DL 1080p Latino WEBDL pelicula completa, descargar Boo! (2019) WEB-DL 1080p Latino WEBDL gratis en mega.

Boo! (2019) WEB-DL 1080p Latino pelicula full hd, Boo! (2019) WEB-DL 1080p Latino mega latino, Boo! (2019) WEB-DL 1080p Latino 4k latino, Boo! (2019) WEB-DL 1080p Latino pelicula completa, Boo! (2019) WEB-DL 1080p Latino descargar gratis, descargar Boo! (2019) WEB-DL 1080p Latino pelicula latino, Boo! (2019) WEB-DL 1080p Latino 1 link mega, Boo! (2019) WEB-DL 1080p Latino 1 link google drive, Boo! (2019) WEB-DL 1080p Latino hd 1080p latino.
Comentarios 0