×

¿Problemas para descargar con Mozilla, EDGE? Deshabilita la opción "Abrir vinculos en una pestaña nueva" tal como lo muestra ésta imagen.

Bombshell: El Escándalo (2019) Full HD 1080p Latino

1.116 vistas

Información de Bombshell: El Escándalo (2019) Full HD 1080p Latino

Datos de la película

  • Calidad: Full 1080p
  • Audio: Español Latino AC3 5.1 BLURAY - Ingles AC3 5.1 BLURAY
  • Subtitulos: Español Latino PGS - Ingles PGS
  • Resolución: 1920x1080p
  • Formato: MKV
  • Codec: H.264
  • Encoder: CinefiloCool
  • Mediainfo: Clic para Mostrar Datos Ver
  • Bombshell (2019) Full HD 1080p Latino-CMHDD.mkv
    Format                      : Matroska
    Format version              : Version 4
    File size                   : 4.72 GiB
    Duration                    : 1 h 48 min
    Overall bit rate            : 6 213 kb/s
    Movie name                  : Bombshell (2019) CinemaniaHDD.Net
    Encoded date                : UTC 2020-03-04 08:18:51
    Writing application         : mkvmerge v42.0.0 ('Overtime') 64-bit
    Writing library             : libebml v1.3.10 + libmatroska v1.5.2
    Attachments                 : CINEMANIAHD.png

    Video
    ID                          : 1
    Format                      : AVC
    Format/Info                 : Advanced Video Codec
    Format profile              : High@L4.1
    Format settings             : CABAC / 4 Ref Frames
    Format settings, CABAC      : Yes
    Format settings, ReFrames   : 4 frames
    Codec ID                    : V_MPEG4/ISO/AVC
    Duration                    : 1 h 48 min
    Bit rate                    : 4 874 kb/s
    Width                       : 1 920 pixels
    Height                      : 1 080 pixels
    Display aspect ratio        : 16:9
    Frame rate mode             : Constant
    Frame rate                  : 23.976 (24000/1001) FPS
    Color space                 : YUV
    Chroma subsampling          : 4:2:0
    Bit depth                   : 8 bits
    Scan type                   : Progressive
    Bits/(Pixel*Frame)          : 0.098
    Stream size                 : 3.70 GiB (78%)
    Title                       : Full HD1080p [Bluray]
    Writing library             : x264 core 157 r2935 545de2f
    Encoding settings           : cabac=1 / ref=4 / deblock=1:-1:-1 / analyse=0x3:0x133 / me=tesa / subme=11 / psy=1 / psy_rd=1.00:0.15 / mixed_ref=1 / me_range=24 / chroma_me=1 / trellis=2 / 8x8dct=1 / cqm=0 / deadzone=21,11 / fast_pskip=0 / chroma_qp_offset=-3 / threads=34 / lookahead_threads=8 / sliced_threads=0 / nr=0 / decimate=1 / interlaced=0 / bluray_compat=0 / constrained_intra=0 / bframes=16 / b_pyramid=2 / b_adapt=2 / b_bias=0 / direct=3 / weightb=1 / open_gop=0 / weightp=2 / keyint=240 / keyint_min=24 / scenecut=40 / intra_refresh=0 / rc_lookahead=60 / rc=crf / mbtree=1 / crf=20.0 / qcomp=0.60 / qpmin=0 / qpmax=69 / qpstep=4 / vbv_maxrate=62500 / vbv_bufsize=78125 / crf_max=0.0 / nal_hrd=none / filler=0 / ip_ratio=1.40 / aq=1:1.00
    Default                     : Yes
    Forced                      : Yes
    Color range                 : Limited
    Color primaries             : BT.709
    Transfer characteristics    : BT.709
    Matrix coefficients         : BT.709

    Audio #1
    ID                          : 2
    Format                      : AC-3
    Format/Info                 : Audio Coding 3
    Commercial name             : Dolby Digital
    Codec ID                    : A_AC3
    Duration                    : 1 h 48 min
    Bit rate mode               : Constant
    Bit rate                    : 640 kb/s
    Channel(s)                  : 6 channels
    Channel layout              : L R C LFE Ls Rs
    Sampling rate               : 48.0 kHz
    Frame rate                  : 31.250 FPS (1536 SPF)
    Bit depth                   : 16 bits
    Compression mode            : Lossy
    Delay relative to video     : 9 ms
    Stream size                 : 498 MiB (10%)
    Title                       : AC3_5.1_Bluray_Esp
    Language                    : Spanish
    Service kind                : Complete Main
    Default                     : Yes
    Forced                      : Yes

    Audio #2
    ID                          : 3
    Format                      : AC-3
    Format/Info                 : Audio Coding 3
    Commercial name             : Dolby Digital
    Codec ID                    : A_AC3
    Duration                    : 1 h 48 min
    Bit rate mode               : Constant
    Bit rate                    : 640 kb/s
    Channel(s)                  : 6 channels
    Channel layout              : L R C LFE Ls Rs
    Sampling rate               : 48.0 kHz
    Frame rate                  : 31.250 FPS (1536 SPF)
    Bit depth                   : 16 bits
    Compression mode            : Lossy
    Stream size                 : 498 MiB (10%)
    Title                       : AC3_5.1_Bluray_Eng
    Language                    : English
    Service kind                : Complete Main
    Default                     : No
    Forced                      : No

    Text #1
    ID                          : 4
    Format                      : PGS
    Muxing mode                 : zlib
    Codec ID                    : S_HDMV/PGS
    Codec ID/Info               : Picture based subtitle format used on BDs/HD-DVDs
    Duration                    : 1 h 44 min
    Bit rate                    : 56.4 kb/s
    Count of elements           : 3634
    Stream size                 : 42.0 MiB (1%)
    Title                       : Sub_Esp [PGS]
    Language                    : Spanish
    Default                     : No
    Forced                      : No

    Text #2
    ID                          : 5
    Format                      : PGS
    Muxing mode                 : zlib
    Codec ID                    : S_HDMV/PGS
    Codec ID/Info               : Picture based subtitle format used on BDs/HD-DVDs
    Duration                    : 1 h 43 min
    Bit rate                    : 62.2 kb/s
    Count of elements           : 3958
    Stream size                 : 45.9 MiB (1%)
    Title                       : Sub_Eng [PGS]
    Language                    : English
    Default                     : No
    Forced                      : No

    Text #3
    ID                          : 6
    Format                      : UTF-8
    Codec ID                    : S_TEXT/UTF8
    Codec ID/Info               : UTF-8 Plain Text
    Duration                    : 1 h 44 min
    Bit rate                    : 3 b/s
    Count of elements           : 58
    Stream size                 : 2.36 KiB (0%)
    Title                       : Sub_Forzados
    Language                    : Spanish
    Default                     : Yes
    Forced                      : Yes

    Text #4
    ID                          : 7
    Format                      : UTF-8
    Codec ID                    : S_TEXT/UTF8
    Codec ID/Info               : UTF-8 Plain Text
    Duration                    : 1 h 45 min
    Bit rate                    : 92 b/s
    Count of elements           : 1818
    Stream size                 : 71.0 KiB (0%)
    Title                       : Sub_Esp
    Language                    : Spanish
    Default                     : No
    Forced                      : No

    Menu
    00:00:00.000                : :Chapter 01
    00:05:26.868                : :Chapter 02
    00:11:49.500                : :Chapter 03
    00:18:26.272                : :Chapter 04
    00:24:45.484                : :Chapter 05
    00:32:00.961                : :Chapter 06
    00:35:00.515                : :Chapter 07
    00:43:37.490                : :Chapter 08
    00:47:00.693                : :Chapter 09
    00:51:10.025                : :Chapter 10
    00:59:32.986                : :Chapter 11
    01:06:25.607                : :Chapter 12
    01:14:31.300                : :Chapter 13
    01:22:41.748                : :Chapter 14
    01:32:31.504                : :Chapter 15
    01:42:38.068                : :Chapter 16

  • Peso: 4.72 GiB

Sinopsis

Descargar Bombshell: El Escándalo (2019) Full HD 1080p Latino. Deconstrucción de la caída de uno de los imperios mediáticos más poderosos y controvertidos de las últimas décadas, Fox News, y de cómo un grupo de explosivas mujeres logró acabar con el hombre responsable de él: Roger Ailes.

Ficha técnica

Video trailer de la película

Enlaces de descarga

Rip de Bluray

Descargar Bombshell: El Escándalo (2019) Full HD 1080p Latino




Aportes de DPeliculasHDmega la pass es:dpeliculashdmega.org Aportes de CinemaniaHD la pass es:cinemaniahdd.com

Películas relacionadas

descargar Bombshell: El Escándalo (2019) Full HD 1080p Latino Full 1080p 1080p gratis, Bombshell: El Escándalo (2019) Full HD 1080p Latino Full 1080p mega 1 link, Bombshell: El Escándalo (2019) Full HD 1080p Latino Full 1080p pelicula completa, descargar Bombshell: El Escándalo (2019) Full HD 1080p Latino Full 1080p gratis en mega.

Bombshell: El Escándalo (2019) Full HD 1080p Latino pelicula full hd, Bombshell: El Escándalo (2019) Full HD 1080p Latino mega latino, Bombshell: El Escándalo (2019) Full HD 1080p Latino 4k latino, Bombshell: El Escándalo (2019) Full HD 1080p Latino pelicula completa, Bombshell: El Escándalo (2019) Full HD 1080p Latino descargar gratis, descargar Bombshell: El Escándalo (2019) Full HD 1080p Latino pelicula latino, Bombshell: El Escándalo (2019) Full HD 1080p Latino 1 link mega, Bombshell: El Escándalo (2019) Full HD 1080p Latino 1 link google drive, Bombshell: El Escándalo (2019) Full HD 1080p Latino hd 1080p latino.
Comentarios 0