×

¿Problemas para descargar con Mozilla, EDGE? Deshabilita la opción "Abrir vinculos en una pestaña nueva" tal como lo muestra ésta imagen.

Bolt (2008) REMUX 1080p Latino – CMHDD

272 vistas

Información de Bolt (2008) REMUX 1080p Latino – CMHDD

Datos de la película

  • Calidad: Full 1080p
  • Audio: Español Latino AC3 5.1 BLURAY - Ingles DTS-HD Master 7.1 BLURAY
  • Subtitulos: Español Latino SRT- FORZADOS SRT
  • Resolución: 1920x1080p
  • Formato: MKV
  • Codec: H.264
  • Encoder: Dracarys
  • Mediainfo: Clic para Mostrar Datos Ver
  • Format                      : Matroska
    Format version              : Version 4
    File size                   : 19.2 GiB
    Duration                    : 1 h 36 min
    Overall bit rate mode       : Variable
    Overall bit rate            : 28.6 Mb/s
    Movie name                  : Bolt (2008) REMUX 1080p Latino - CMHDD
    Encoded date                : UTC 2020-08-07 20:45:29
    Writing application         : mkvmerge v46.0.0 ('No Deeper Escape') 64-bit
    Writing library             : libebml v1.3.10 + libmatroska v1.5.2

    Video
    ID                          : 1
    Format                      : AVC
    Format/Info                 : Advanced Video Codec
    Format profile              : High@L4.1
    Format settings             : CABAC / 4 Ref Frames
    Format settings, CABAC      : Yes
    Format settings, Reference  : 4 frames
    Codec ID                    : V_MPEG4/ISO/AVC
    Duration                    : 1 h 36 min
    Bit rate mode               : Variable
    Bit rate                    : 24.0 Mb/s
    Maximum bit rate            : 34.0 Mb/s
    Width                       : 1 920 pixels
    Height                      : 1 080 pixels
    Display aspect ratio        : 16:9
    Frame rate mode             : Constant
    Frame rate                  : 23.976 (24000/1001) FPS
    Color space                 : YUV
    Chroma subsampling          : 4:2:0
    Bit depth                   : 8 bits
    Scan type                   : Progressive
    Bits/(Pixel*Frame)          : 0.484
    Stream size                 : 16.2 GiB (84%)
    Language                    : English
    Default                     : Yes
    Forced                      : No
    Color range                 : Limited
    Color primaries             : BT.709
    Transfer characteristics    : BT.709
    Matrix coefficients         : BT.709

    Audio #1
    ID                          : 2
    Format                      : AC-3
    Format/Info                 : Audio Coding 3
    Commercial name             : Dolby Digital
    Codec ID                    : A_AC3
    Duration                    : 1 h 36 min
    Bit rate mode               : Constant
    Bit rate                    : 640 kb/s
    Channel(s)                  : 6 channels
    Channel layout              : L R C LFE Ls Rs
    Sampling rate               : 48.0 kHz
    Frame rate                  : 31.250 FPS (1536 SPF)
    Compression mode            : Lossy
    Stream size                 : 441 MiB (2%)
    Service kind                : Complete Main
    Default                     : No
    Forced                      : No

    Audio #2
    ID                          : 3
    Format                      : DTS ES XLL
    Format/Info                 : Digital Theater Systems
    Commercial name             : DTS-HD Master Audio
    Codec ID                    : A_DTS
    Duration                    : 1 h 36 min
    Bit rate mode               : Variable
    Bit rate                    : 3 874 kb/s
    Channel(s)                  : 6 channels
    Channel(s)_Original         : 7 channels
    ChannelLayout_Original      : C L R Ls Rs LFE Cs
    Sampling rate               : 48.0 kHz
    Frame rate                  : 93.750 FPS (512 SPF)
    Bit depth                   : 24 bits
    Compression mode            : Lossless
    Stream size                 : 2.61 GiB (14%)
    Language                    : English
    Default                     : Yes
    Forced                      : No

    Text #1
    ID                          : 4
    Format                      : UTF-8
    Codec ID                    : S_TEXT/UTF8
    Codec ID/Info               : UTF-8 Plain Text
    Duration                    : 49 min 26 s
    Bit rate                    : 0 b/s
    Count of elements           : 3
    Stream size                 : 58.0 Bytes (0%)
    Title                       : Forzados
    Language                    : Spanish
    Default                     : Yes
    Forced                      : No

    Text #2
    ID                          : 5
    Format                      : UTF-8
    Codec ID                    : S_TEXT/UTF8
    Codec ID/Info               : UTF-8 Plain Text
    Duration                    : 1 h 31 min
    Bit rate                    : 52 b/s
    Count of elements           : 1072
    Stream size                 : 35.1 KiB (0%)
    Language                    : Spanish
    Default                     : No
    Forced                      : No

    Menu
    00:00:00.000                : en:00:00:00.000
    00:02:31.651                : en:00:02:31.651
    00:11:00.660                : en:00:11:00.660
    00:13:47.201                : en:00:13:47.201
    00:19:19.950                : en:00:19:19.950
    00:24:18.874                : en:00:24:18.874
    00:27:14.383                : en:00:27:14.383
    00:29:48.703                : en:00:29:48.703
    00:35:25.832                : en:00:35:25.832
    00:42:09.569                : en:00:42:09.569
    00:51:41.974                : en:00:51:41.974
    01:01:58.339                : en:01:01:58.339
    01:08:16.008                : en:01:08:16.008
    01:13:02.711                : en:01:13:02.711
    01:18:53.061                : en:01:18:53.061
    01:29:36.830                : en:01:29:36.830
     

  • Peso: 19.2 GiB

Sinopsis

Para el super-perro Bolt todos los días están llenos de aventuras, peligros e intriga -al menos hasta que las cámaras dejan de grabar, ya que es el protagonista de un famoso programa de televisión-. Pero cuando la estrella canina del gran éxito televisivo es enviada accidentalmente desde sus estudios de Hollywood a Nueva York, comienza su mayor aventura en un viaje campo a través por el mundo real. Bolt está convencido de que todos sus increíbles poderes y hazañas son reales.

Ficha técnica

Video trailer de la película

Enlaces de descarga

Rip de Bluray

Descargar Bolt (2008) REMUX 1080p Latino – CMHDD




Aportes de DPeliculasHDmega la pass es:dpeliculashdmega.org Aportes de CinemaniaHD la pass es:cinemaniahdd.com
Guardado en : Animación , Aventura , Comedia , Familia

Películas relacionadas

Bolt (2008) REMUX 1080p Latino – CMHDD pelicula full hd, Bolt (2008) REMUX 1080p Latino – CMHDD mega latino, Bolt (2008) REMUX 1080p Latino – CMHDD 4k latino, Bolt (2008) REMUX 1080p Latino – CMHDD pelicula completa, Bolt (2008) REMUX 1080p Latino – CMHDD descargar gratis, descargar Bolt (2008) REMUX 1080p Latino – CMHDD pelicula latino, Bolt (2008) REMUX 1080p Latino – CMHDD 1 link mega, Bolt (2008) REMUX 1080p Latino – CMHDD 1 link google drive, Bolt (2008) REMUX 1080p Latino – CMHDD hd 1080p latino.
Comentarios 0