×

¿Problemas para descargar con Mozilla, EDGE? Deshabilita la opción "Abrir vinculos en una pestaña nueva" tal como lo muestra ésta imagen.

Bohemian Rhapsody (2018) REMUX 1080p Latino

1.642 vistas

Información de Bohemian Rhapsody (2018) REMUX 1080p Latino

bohemian rhapsody 50372 poster e1553813631982

Datos de la película

  • Calidad: Full 1080p
  • Audio: Español Latino AC3 5.1 BLURAY - DTS-HD Master 7.1 BLURAY
  • Subtitulos: Español Latino PGS - Ingles PGS
  • Resolución: 1920x1080
  • Formato: MKV
  • Codec: H.264
  • Encoder: FGT
  • Mediainfo: Clic para Mostrar Datos Ver
  • Bohemian Rhapsody (2018) REMUX 1080p Latino.mkv
    Format                      : Matroska
    Format version              : Version 4
    File size                   : 26.7 GiB
    Duration                    : 2 h 14 min
    Overall bit rate mode       : Variable
    Overall bit rate            : 28.4 Mb/s
    Movie name                  : CinemaniaHDD.net
    Encoded date                : UTC 2019-03-28 18:49:41
    Writing application         : mkvmerge v30.1.0 ('Forever And More') 64-bit
    Writing library             : libebml v1.3.6 + libmatroska v1.4.9
    Cover                       : Yes
    Attachments                 : small_cover.jpg / small_cover_land.jpg / cover.jpg / cover_land.jpg

    Video
    ID                          : 1
    Format                      : AVC
    Format/Info                 : Advanced Video Codec
    Format profile              : High@L4.1
    Format settings             : CABAC / 2 Ref Frames
    Format settings, CABAC      : Yes
    Format settings, ReFrames   : 2 frames
    Codec ID                    : V_MPEG4/ISO/AVC
    Duration                    : 2 h 14 min
    Bit rate mode               : Variable
    Bit rate                    : 23.2 Mb/s
    Width                       : 1 920 pixels
    Height                      : 1 080 pixels
    Display aspect ratio        : 16:9
    Frame rate mode             : Constant
    Frame rate                  : 23.976 (24000/1001) FPS
    Color space                 : YUV
    Chroma subsampling          : 4:2:0
    Bit depth                   : 8 bits
    Scan type                   : Progressive
    Bits/(Pixel*Frame)          : 0.467
    Stream size                 : 21.8 GiB (82%)
    Language                    : English
    Default                     : No
    Forced                      : No

    Audio #1
    ID                          : 2
    Format                      : AC-3
    Format/Info                 : Audio Coding 3
    Commercial name             : Dolby Digital
    Codec ID                    : A_AC3
    Duration                    : 2 h 14 min
    Bit rate mode               : Constant
    Bit rate                    : 448 kb/s
    Channel(s)                  : 6 channels
    Channel layout              : L R C LFE Ls Rs
    Sampling rate               : 48.0 kHz
    Frame rate                  : 31.250 FPS (1536 SPF)
    Bit depth                   : 16 bits
    Compression mode            : Lossy
    Stream size                 : 431 MiB (2%)
    Language                    : Spanish
    Service kind                : Complete Main
    Default                     : Yes
    Forced                      : No

    Audio #2
    ID                          : 3
    Format                      : DTS ES XLL
    Format/Info                 : Digital Theater Systems
    Commercial name             : DTS-HD Master Audio
    Codec ID                    : A_DTS
    Duration                    : 2 h 14 min
    Bit rate mode               : Variable
    Bit rate                    : 4 763 kb/s
    Channel(s)                  : 8 channels
    Channel layout              : C L R Ls Rs LFE Lb Rb
    Sampling rate               : 48.0 kHz
    Frame rate                  : 93.750 FPS (512 SPF)
    Bit depth                   : 24 bits
    Compression mode            : Lossless
    Stream size                 : 4.48 GiB (17%)
    Language                    : English
    Default                     : No
    Forced                      : No

    Text #1
    ID                          : 4
    Format                      : PGS
    Muxing mode                 : zlib
    Codec ID                    : S_HDMV/PGS
    Codec ID/Info               : Picture based subtitle format used on BDs/HD-DVDs
    Duration                    : 2 h 11 min
    Bit rate                    : 44.0 kb/s
    Count of elements           : 4536
    Stream size                 : 41.2 MiB (0%)
    Title                       : English-PGS
    Language                    : English
    Default                     : No
    Forced                      : No

    Text #2
    ID                          : 5
    Format                      : PGS
    Muxing mode                 : zlib
    Codec ID                    : S_HDMV/PGS
    Codec ID/Info               : Picture based subtitle format used on BDs/HD-DVDs
    Duration                    : 2 h 13 min
    Bit rate                    : 28.9 kb/s
    Count of elements           : 3107
    Stream size                 : 27.6 MiB (0%)
    Language                    : Spanish
    Default                     : No
    Forced                      : No

    Text #3
    ID                          : 6
    Format                      : PGS
    Muxing mode                 : zlib
    Codec ID                    : S_HDMV/PGS
    Codec ID/Info               : Picture based subtitle format used on BDs/HD-DVDs
    Duration                    : 1 h 45 min
    Bit rate                    : 388 b/s
    Count of elements           : 28
    Stream size                 : 299 KiB (0%)
    Title                       : Spanish-FORCED-PGS
    Language                    : Spanish
    Default                     : No
    Forced                      : No

    Text #4
    ID                          : 7
    Format                      : PGS
    Muxing mode                 : zlib
    Codec ID                    : S_HDMV/PGS
    Codec ID/Info               : Picture based subtitle format used on BDs/HD-DVDs
    Duration                    : 2 h 13 min
    Bit rate                    : 2 135 b/s
    Count of elements           : 168
    Stream size                 : 2.04 MiB (0%)
    Title                       : French-FORCED-PGS
    Language                    : French
    Default                     : No
    Forced                      : No

    Text #5
    ID                          : 8
    Format                      : UTF-8
    Codec ID                    : S_TEXT/UTF8
    Codec ID/Info               : UTF-8 Plain Text
    Duration                    : 1 h 58 min
    Bit rate                    : 11 b/s
    Count of elements           : 267
    Stream size                 : 9.90 KiB (0%)
    Language                    : Spanish
    Default                     : Yes
    Forced                      : No

    Text #6
    ID                          : 9
    Format                      : UTF-8
    Codec ID                    : S_TEXT/UTF8
    Codec ID/Info               : UTF-8 Plain Text
    Duration                    : 2 h 8 min
    Bit rate                    : 58 b/s
    Count of elements           : 1793
    Stream size                 : 55.3 KiB (0%)
    Language                    : Spanish
    Default                     : No
    Forced                      : No

    Menu
    00:00:00.000                : en:Chapter 01
    00:03:48.436                : en:Chapter 02
    00:07:45.465                : en:Chapter 03
    00:11:16.592                : en:Chapter 04
    00:17:41.769                : en:Chapter 05
    00:21:03.178                : en:Chapter 06
    00:27:23.850                : en:Chapter 07
    00:33:34.470                : en:Chapter 08
    00:37:22.281                : en:Chapter 09
    00:45:24.012                : en:Chapter 10
    00:52:19.344                : en:Chapter 11
    00:56:57.205                : en:Chapter 12
    01:03:11.370                : en:Chapter 13
    01:10:44.990                : en:Chapter 14
    01:15:25.729                : en:Chapter 15
    01:21:45.650                : en:Chapter 16
    01:26:58.880                : en:Chapter 17
    01:32:18.533                : en:Chapter 18
    01:36:43.923                : en:Chapter 19
    01:43:25.574                : en:Chapter 20
    01:50:23.283                : en:Chapter 21
    01:54:22.897                : en:Chapter 22
    02:00:41.108                : en:Chapter 23
    02:07:53.332                : en:Chapter 24

  • Peso: 26.7 GiB

Sinopsis

Bohemian Rhapsody es una rotunda y sonora celebración de Queen, de su música y de su extraordinario cantante Freddie Mercury, que desafió estereotipos e hizo añicos tradiciones para convertirse en uno de los showmans más queridos del mundo. La película plasma el meteórico ascenso al olimpo de la música de la banda a través de sus icónicas canciones y su revolucionario sonido, su crisis cuando el estilo de vida de Mercury estuvo fuera de control, y su triunfal reunión en la víspera del Live Aid, en la que Mercury, mientras sufría una enfermedad que amenazaba su vida, lidera a la banda en uno de los conciertos de rock más grandes de la historia. Veremos cómo se cimentó el legado de una banda que siempre se pareció más a una familia, y que continúa inspirando a propios y extraños, soñadores y amantes de la música hasta nuestros días.

Ficha técnica

Video trailer de la película

Enlaces de descarga

Rip de Bluray

Descargar Bohemian Rhapsody (2018) REMUX 1080p Latino




Aportes de DPeliculasHDmega la pass es:dpeliculashdmega.org Aportes de CinemaniaHD la pass es:cinemaniahdd.com
Guardado en : Drama , Música , Remux

Películas relacionadas

  • Un mundo extraño (2022) REMUX 1080p Latino

    Un mundo extraño (2022) REMUX 1080p Latino

    2022
    Un mundo extraño (2022) REMUX 1080p Latino

    1h 42m 2022

    Descargar Un mundo extraño (2022) REMUX 1080p. Un viaje a una tierra inexplorada y traicionera en la...

    Director: Thai Bettistea

    Género: Animación

    Actores: Reed Buck

  • Stromboli (2022) NF WEB-DL 1080p Latino

    Stromboli (2022) NF WEB-DL 1080p Latino

    2022
    Stromboli (2022) NF WEB-DL 1080p Latino

    1h 26m 2022

    Descargar Stromboli (2022) NF WEB-DL 1080p Latino. Sara, una mujer que se ha divorciado recientemente,...

    Director: Michiel van Erp

    Género: Drama

    Actores: Tim McInnerny

  • Infiesto (2023) NF WEB-DL 1080p Castellano

    Infiesto (2023) NF WEB-DL 1080p Castellano

    2023
    Infiesto (2023) NF WEB-DL 1080p Castellano

    1h 36m 2023

    Descargar Infiesto (2023) NF WEB-DL 1080p Castellano. Mientras el coronavirus trastoca sus vidas, dos...

    Director: Patxi Amezcua

    Género: Crimen

    Actores: Luis Zahera

  • Espiritu Libre (2023) NF WEB-DL 1080p Latino

    Espiritu Libre (2023) NF WEB-DL 1080p Latino

    2023
    Espiritu Libre (2023) NF WEB-DL 1080p Latino

    1h 49m 2023

    Descargar Espiritu Libre (2023) NF WEB-DL 1080p Latino. La película se basa en la increíble historia...

    Director: Sarah Spillane

    Género: Aventura

    Actores: Vivien Turner

descargar Bohemian Rhapsody (2018) REMUX 1080p Latino Full 1080p 1080p gratis, Bohemian Rhapsody (2018) REMUX 1080p Latino Full 1080p mega 1 link, Bohemian Rhapsody (2018) REMUX 1080p Latino Full 1080p pelicula completa, descargar Bohemian Rhapsody (2018) REMUX 1080p Latino Full 1080p gratis en mega.

Bohemian Rhapsody (2018) REMUX 1080p Latino pelicula full hd, Bohemian Rhapsody (2018) REMUX 1080p Latino mega latino, Bohemian Rhapsody (2018) REMUX 1080p Latino 4k latino, Bohemian Rhapsody (2018) REMUX 1080p Latino pelicula completa, Bohemian Rhapsody (2018) REMUX 1080p Latino descargar gratis, descargar Bohemian Rhapsody (2018) REMUX 1080p Latino pelicula latino, Bohemian Rhapsody (2018) REMUX 1080p Latino 1 link mega, Bohemian Rhapsody (2018) REMUX 1080p Latino 1 link google drive, Bohemian Rhapsody (2018) REMUX 1080p Latino hd 1080p latino.
Comentarios 2
  • JayroHannibal - 29 marzo, 2019

    ¿Que diferencia tiene esta con la Full HD? ¿Es version 4K algo asi?

    • dpelis - 29 marzo, 2019

      es el video intacto del bluraya . es la fuente de la plateada. la mejor calidad