×

¿Problemas para descargar con Mozilla, EDGE? Deshabilita la opción "Abrir vinculos en una pestaña nueva" tal como lo muestra ésta imagen.

Red de mentiras (2008) REMUX 1080p Latino

279 vistas

Información de Red de mentiras (2008) REMUX 1080p Latino

Datos de la película

  • Calidad: Full 1080p
  • Audio: Se especifica abajo de la Sinopsis
  • Subtitulos: Español Latino PGS - Ingles PGS
  • Resolución: 1920x1080p
  • Formato: MKV
  • Codec: H.264
  • Encoder: CinefiloCool
  • Mediainfo: Clic para Mostrar Datos Ver
  • Red De Mentiras (2008) REMUX 1080p Latino-CMHDD.mkv
    Format                      : Matroska
    Format version              : Version 4
    File size                   : 23.9 GiB
    Duration                    : 2 h 8 min
    Overall bit rate mode       : Variable
    Overall bit rate            : 26.7 Mb/s
    Movie name                  : Body Of Lies (2008) CinemaniaHDD.Net
    Encoded date                : UTC 2022-03-03 05:38:18
    Writing application         : mkvmerge v56.1.0 ('My Friend') 64-bit
    Writing library             : libebml v1.4.2 + libmatroska v1.6.4
    Attachments                 : CINEMANIAHD.png

    Video
    ID                          : 1
    Format                      : VC-1
    Format profile              : Advanced@L3
    Codec ID                    : V_MS/VFW/FOURCC / WVC1
    Codec ID/Hint               : Microsoft
    Duration                    : 2 h 8 min
    Bit rate                    : 21.8 Mb/s
    Width                       : 1 920 pixels
    Height                      : 1 080 pixels
    Display aspect ratio        : 16:9
    Frame rate mode             : Constant
    Frame rate                  : 23.976 (24000/1001) FPS
    Color space                 : YUV
    Chroma subsampling          : 4:2:0
    Bit depth                   : 8 bits
    Scan type                   : Progressive
    Compression mode            : Lossy
    Bits/(Pixel*Frame)          : 0.438
    Stream size                 : 19.5 GiB (82%)
    Title                       : REMUX HD1080p [CinemaniaHDD]
    Default                     : Yes
    Forced                      : Yes

    Audio #1
    ID                          : 2
    Format                      : AC-3
    Format/Info                 : Audio Coding 3
    Commercial name             : Dolby Digital
    Codec ID                    : A_AC3
    Duration                    : 2 h 8 min
    Bit rate mode               : Constant
    Bit rate                    : 640 kb/s
    Channel(s)                  : 6 channels
    Channel layout              : L R C LFE Ls Rs
    Sampling rate               : 48.0 kHz
    Frame rate                  : 31.250 FPS (1536 SPF)
    Compression mode            : Lossy
    Stream size                 : 587 MiB (2%)
    Title                       : Español Latino AC3 [CinemaniaHDD]
    Language                    : Spanish
    Service kind                : Complete Main
    Default                     : Yes
    Forced                      : Yes

    Audio #2
    ID                          : 3
    Format                      : DTS XLL
    Format/Info                 : Digital Theater Systems
    Commercial name             : DTS-HD Master Audio
    Codec ID                    : A_DTS
    Duration                    : 2 h 8 min
    Bit rate mode               : Variable
    Bit rate                    : 3 564 kb/s
    Channel(s)                  : 6 channels
    Channel layout              : C L R Ls Rs LFE
    Sampling rate               : 48.0 kHz
    Frame rate                  : 93.750 FPS (512 SPF)
    Bit depth                   : 24 bits
    Compression mode            : Lossless
    Stream size                 : 3.19 GiB (13%)
    Title                       : Ingles [CinemaniaHDD]
    Language                    : English
    Default                     : No
    Forced                      : No

    Audio #3
    ID                          : 4
    Format                      : E-AC-3
    Format/Info                 : Enhanced AC-3
    Commercial name             : Dolby Digital Plus
    Codec ID                    : A_EAC3
    Duration                    : 2 h 8 min
    Bit rate mode               : Constant
    Bit rate                    : 640 kb/s
    Channel(s)                  : 6 channels
    Channel layout              : L R C LFE Ls Rs
    Sampling rate               : 48.0 kHz
    Frame rate                  : 31.250 FPS (1536 SPF)
    Compression mode            : Lossy
    Delay relative to video     : 1 s 955 ms
    Stream size                 : 587 MiB (2%)
    Title                       : Español Latino EAC3 [CinemaniaHDD]
    Language                    : Spanish
    Service kind                : Complete Main
    Default                     : No
    Forced                      : No

    Text #1
    ID                          : 5
    Format                      : PGS
    Muxing mode                 : zlib
    Codec ID                    : S_HDMV/PGS
    Codec ID/Info               : Picture based subtitle format used on BDs/HD-DVDs
    Duration                    : 2 h 7 min
    Bit rate                    : 31.6 kb/s
    Count of elements           : 3166
    Stream size                 : 28.9 MiB (0%)
    Title                       : Español-PGS [CinemaniaHDD]
    Language                    : Spanish
    Default                     : No
    Forced                      : No

    Text #2
    ID                          : 6
    Format                      : PGS
    Muxing mode                 : zlib
    Codec ID                    : S_HDMV/PGS
    Codec ID/Info               : Picture based subtitle format used on BDs/HD-DVDs
    Duration                    : 2 h 7 min
    Bit rate                    : 37.5 kb/s
    Count of elements           : 3460
    Stream size                 : 34.2 MiB (0%)
    Title                       : Ingles-PGS [CinemaniaHDD]
    Language                    : English
    Default                     : No
    Forced                      : No

    Text #3
    ID                          : 7
    Format                      : UTF-8
    Codec ID                    : S_TEXT/UTF8
    Codec ID/Info               : UTF-8 Plain Text
    Duration                    : 1 h 54 min
    Bit rate                    : 5 b/s
    Count of elements           : 129
    Stream size                 : 4.65 KiB (0%)
    Title                       : Forzados-SRT [CinemaniaHDD]
    Language                    : Spanish
    Default                     : Yes
    Forced                      : Yes

    Text #4
    ID                          : 8
    Format                      : UTF-8
    Codec ID                    : S_TEXT/UTF8
    Codec ID/Info               : UTF-8 Plain Text
    Duration                    : 2 h 1 min
    Bit rate                    : 81 b/s
    Count of elements           : 1581
    Stream size                 : 72.8 KiB (0%)
    Title                       : Español-SRT [CinemaniaHDD]
    Language                    : Spanish
    Default                     : No
    Forced                      : No

    Menu
    00:00:00.000                : :Chapter 01
    00:03:08.188                : :Chapter 02
    00:06:53.872                : :Chapter 03
    00:12:32.961                : :Chapter 04
    00:16:10.720                : :Chapter 05
    00:18:41.579                : :Chapter 06
    00:26:49.107                : :Chapter 07
    00:30:44.634                : :Chapter 08
    00:34:10.590                : :Chapter 09
    00:39:22.402                : :Chapter 10
    00:41:48.506                : :Chapter 11
    00:44:08.312                : :Chapter 12
    00:48:10.012                : :Chapter 13
    00:52:48.957                : :Chapter 14
    00:56:01.525                : :Chapter 15
    01:00:10.690                : :Chapter 16
    01:03:56.750                : :Chapter 17
    01:07:02.852                : :Chapter 18
    01:09:53.815                : :Chapter 19
    01:14:44.230                : :Chapter 20
    01:17:20.427                : :Chapter 21
    01:22:43.250                : :Chapter 22
    01:24:49.710                : :Chapter 23
    01:28:14.915                : :Chapter 24
    01:31:36.324                : :Chapter 25
    01:35:20.006                : :Chapter 26
    01:40:17.803                : :Chapter 27
    01:43:22.696                : :Chapter 28
    01:46:48.986                : :Chapter 29
    01:52:50.430                : :Chapter 30
    01:55:17.536                : :Chapter 31
    01:58:11.126                : :Chapter 32
    02:01:50.595                : :Chapter 33

  • Peso: 23.9 GiB

Sinopsis

Descargar Red de mentiras (2008) REMUX 1080p Latino. Roger Ferris (Leonardo DiCaprio) es el mejor hombre de la CIA. Las misiones que le encargan lo llevan desde Oriente Medio a Washington. Cada uno de sus pasos depende de una voz al otro lado de una línea telefónica segura: la del veterano de la CIA Ed Hoffman (Russell Crowe), responsable de las operaciones de la Agencia en todo Oriente Medio. Trabajando desde un móvil en su confortable casa, Hoffman sigue la pista de un líder terrorista que ha dirigido una campaña de bombardeos eludiendo a la red de inteligencia más sofisticada del mundo. Para sacar a los terroristas de su madriguera, Ferris tendrá que entrar en su turbio mundo. Adaptación de la novela «Body of Lies», de David Ignatius, antiguo columnista de asuntos internacionales del diario «The Washington Post».

Audio Español Latino AC3 5.1 + EAC3 5.1 Amzn – Ingles DTS-HD 5.1 Bluray
Disponible Solo Para VIP!!!

Ficha técnica

Video trailer de la película

Enlaces de descarga

Rip de Bluray

Descargar Red de mentiras (2008) REMUX 1080p Latino


Aportes de DPeliculasHDmega la pass es:dpeliculashdmega.org Aportes de CinemaniaHD la pass es:cinemaniahdd.com
Guardado en : Acción , Drama , Remux , Suspenso

Películas relacionadas

  • Mar de sangre (2022) WEB-DL 1080p Latino

    Mar de sangre (2022) WEB-DL 1080p Latino

    2022
    Mar de sangre (2022) WEB-DL 1080p Latino

    1h 27m 2022

    Descargar Mar de sangre (2022) WEB-DL 1080p Latino. Un grupo de amigos que disfrutan de un fin de semana...

    Director: James Nunn

    Género: Acción

    Actores: Thomas Michael Flynn

  • Noche sin paz (2022) PLACEBO Full HD 1080p Latino

    Noche sin paz (2022) PLACEBO Full HD 1080p Latino

    2022
    Noche sin paz (2022) PLACEBO Full HD 1080p Latino

    1h 41m 2022

    Descargar Noche sin paz (2022) PLACEBO Full HD 1080p Latino. Cuando un equipo de mercenarios irrumpe...

    Director: Tyshana Hobson

    Género: Acción

    Actores: Yoon Cha-Lee

  • Noche sin paz (2022) HD 1080p Latino

    Noche sin paz (2022) HD 1080p Latino

    2022
    Noche sin paz (2022) HD 1080p Latino

    1h 41m 2022

    Descargar Noche sin paz (2022) HD 1080p Latino. Cuando un equipo de mercenarios irrumpe en Nochebuena...

    Director: Tyshana Hobson

    Género: Acción

    Actores: Yoon Cha-Lee

  • Noche sin paz (2022) REMUX 1080p Latino

    Noche sin paz (2022) REMUX 1080p Latino

    2022
    Noche sin paz (2022) REMUX 1080p Latino

    1h 41m 2022

    Descargar Noche sin paz (2022) REMUX 1080p Latino. Cuando un equipo de mercenarios irrumpe en Nochebuena...

    Director: Tyshana Hobson

    Género: Acción

    Actores: Yoon Cha-Lee

  • Narvik (2022) NF WEB-DL 1080p Latino

    Narvik (2022) NF WEB-DL 1080p Latino

    2022
    Narvik (2022) NF WEB-DL 1080p Latino

    1h 48m 2022

    Descargar Narvik (2022) NF WEB-DL 1080p Latino. Abril de 1940. Los ojos del mundo están puestos en Narvik,...

    Director: Suzanne Svae-Johansen

    Género: Acción

    Actores: Torfinn Nag

descargar Red de mentiras (2008) REMUX 1080p Latino Full 1080p 1080p gratis, Red de mentiras (2008) REMUX 1080p Latino Full 1080p mega 1 link, Red de mentiras (2008) REMUX 1080p Latino Full 1080p pelicula completa, descargar Red de mentiras (2008) REMUX 1080p Latino Full 1080p gratis en mega.

Red de mentiras (2008) REMUX 1080p Latino pelicula full hd, Red de mentiras (2008) REMUX 1080p Latino mega latino, Red de mentiras (2008) REMUX 1080p Latino 4k latino, Red de mentiras (2008) REMUX 1080p Latino pelicula completa, Red de mentiras (2008) REMUX 1080p Latino descargar gratis, descargar Red de mentiras (2008) REMUX 1080p Latino pelicula latino, Red de mentiras (2008) REMUX 1080p Latino 1 link mega, Red de mentiras (2008) REMUX 1080p Latino 1 link google drive, Red de mentiras (2008) REMUX 1080p Latino hd 1080p latino.
Comentarios 0