×

¿Problemas para descargar con Mozilla, EDGE? Deshabilita la opción "Abrir vinculos en una pestaña nueva" tal como lo muestra ésta imagen.

Red de mentiras (2008) Full HD 1080p Latino

203 vistas

Información de Red de mentiras (2008) Full HD 1080p Latino

Datos de la película

  • Calidad: Full 1080p
  • Audio: Se especifica abajo de la Sinopsis
  • Subtitulos: Español Latino PGS - Ingles PGS
  • Resolución: 1920x1080p
  • Formato: MKV
  • Codec: H.264
  • Encoder: CinefiloCool
  • Mediainfo: Clic para Mostrar Datos Ver
  • Red De Mentiras (2008) Full HD 1080p Latino-CMHDD.mkv
    Format                      : Matroska
    Format version              : Version 4
    File size                   : 8.64 GiB
    Duration                    : 2 h 8 min
    Overall bit rate            : 9 639 kb/s
    Movie name                  : Body Of Lies (2008) CinemaniaHDD.Net
    Encoded date                : UTC 2023-10-10 02:21:47
    Writing application         : mkvmerge v56.1.0 ('My Friend') 64-bit
    Writing library             : libebml v1.4.2 + libmatroska v1.6.4
    Attachments                 : CINEMANIAHD.png

    Video
    ID                          : 1
    Format                      : AVC
    Format/Info                 : Advanced Video Codec
    Format profile              : High@L4.1
    Format settings             : CABAC / 4 Ref Frames
    Format settings, CABAC      : Yes
    Format settings, Reference  : 4 frames
    Codec ID                    : V_MPEG4/ISO/AVC
    Duration                    : 2 h 8 min
    Bit rate                    : 6 817 kb/s
    Width                       : 1 920 pixels
    Height                      : 1 080 pixels
    Display aspect ratio        : 16:9
    Frame rate mode             : Constant
    Frame rate                  : 23.976 (24000/1001) FPS
    Color space                 : YUV
    Chroma subsampling          : 4:2:0
    Bit depth                   : 8 bits
    Scan type                   : Progressive
    Bits/(Pixel*Frame)          : 0.137
    Stream size                 : 6.11 GiB (71%)
    Title                       : Full HD1080p [CinemaniaHDD]
    Writing library             : x264 core 163 r3059 b684ebe0
    Encoding settings           : cabac=1 / ref=4 / deblock=1:0:0 / analyse=0x3:0x133 / me=tesa / subme=11 / psy=1 / psy_rd=1.00:0.00 / mixed_ref=1 / me_range=24 / chroma_me=1 / trellis=2 / 8x8dct=1 / cqm=0 / deadzone=21,11 / fast_pskip=0 / chroma_qp_offset=-2 / threads=24 / lookahead_threads=6 / sliced_threads=0 / nr=0 / decimate=1 / interlaced=0 / bluray_compat=0 / constrained_intra=0 / bframes=16 / b_pyramid=2 / b_adapt=2 / b_bias=0 / direct=3 / weightb=1 / open_gop=0 / weightp=2 / keyint=240 / keyint_min=24 / scenecut=40 / intra_refresh=0 / rc_lookahead=60 / rc=crf / mbtree=1 / crf=20.0 / qcomp=0.60 / qpmin=0 / qpmax=69 / qpstep=4 / vbv_maxrate=62500 / vbv_bufsize=78125 / crf_max=0.0 / nal_hrd=none / filler=0 / ip_ratio=1.40 / aq=1:1.00
    Default                     : Yes
    Forced                      : Yes
    Color range                 : Limited
    Color primaries             : BT.709
    Transfer characteristics    : BT.709
    Matrix coefficients         : BT.709

    Audio #1
    ID                          : 2
    Format                      : AC-3
    Format/Info                 : Audio Coding 3
    Commercial name             : Dolby Digital
    Codec ID                    : A_AC3
    Duration                    : 2 h 8 min
    Bit rate mode               : Constant
    Bit rate                    : 640 kb/s
    Channel(s)                  : 6 channels
    Channel layout              : L R C LFE Ls Rs
    Sampling rate               : 48.0 kHz
    Frame rate                  : 31.250 FPS (1536 SPF)
    Compression mode            : Lossy
    Stream size                 : 587 MiB (7%)
    Title                       : Español Latino AC3 [CinemaniaHDD]
    Language                    : Spanish
    Service kind                : Complete Main
    Default                     : Yes
    Forced                      : Yes

    Audio #2
    ID                          : 3
    Format                      : E-AC-3
    Format/Info                 : Enhanced AC-3
    Commercial name             : Dolby Digital Plus
    Codec ID                    : A_EAC3
    Duration                    : 2 h 8 min
    Bit rate mode               : Constant
    Bit rate                    : 640 kb/s
    Channel(s)                  : 6 channels
    Channel layout              : L R C LFE Ls Rs
    Sampling rate               : 48.0 kHz
    Frame rate                  : 31.250 FPS (1536 SPF)
    Compression mode            : Lossy
    Delay relative to video     : 1 s 955 ms
    Stream size                 : 587 MiB (7%)
    Title                       : Español Latino EAC3 [CinemaniaHDD]
    Language                    : Spanish
    Service kind                : Complete Main
    Default                     : No
    Forced                      : No

    Audio #3
    ID                          : 4
    Format                      : DTS
    Format/Info                 : Digital Theater Systems
    Codec ID                    : A_DTS
    Duration                    : 2 h 8 min
    Bit rate mode               : Constant
    Bit rate                    : 1 509 kb/s
    Channel(s)                  : 6 channels
    Channel layout              : C L R Ls Rs LFE
    Sampling rate               : 48.0 kHz
    Frame rate                  : 93.750 FPS (512 SPF)
    Bit depth                   : 24 bits
    Compression mode            : Lossy
    Stream size                 : 1.35 GiB (16%)
    Title                       : Ingles [CinemaniaHDD]
    Language                    : English
    Default                     : No
    Forced                      : No

    Text #1
    ID                          : 5
    Format                      : PGS
    Muxing mode                 : zlib
    Codec ID                    : S_HDMV/PGS
    Codec ID/Info               : Picture based subtitle format used on BDs/HD-DVDs
    Duration                    : 2 h 7 min
    Bit rate                    : 31.6 kb/s
    Count of elements           : 3166
    Stream size                 : 28.9 MiB (0%)
    Title                       : Español-PGS [CinemaniaHDD]
    Language                    : Spanish
    Default                     : No
    Forced                      : No

    Text #2
    ID                          : 6
    Format                      : PGS
    Muxing mode                 : zlib
    Codec ID                    : S_HDMV/PGS
    Codec ID/Info               : Picture based subtitle format used on BDs/HD-DVDs
    Duration                    : 2 h 7 min
    Bit rate                    : 37.5 kb/s
    Count of elements           : 3460
    Stream size                 : 34.2 MiB (0%)
    Title                       : Ingles-PGS [CinemaniaHDD]
    Language                    : English
    Default                     : No
    Forced                      : No

    Text #3
    ID                          : 7
    Format                      : UTF-8
    Codec ID                    : S_TEXT/UTF8
    Codec ID/Info               : UTF-8 Plain Text
    Duration                    : 1 h 54 min
    Bit rate                    : 5 b/s
    Count of elements           : 129
    Stream size                 : 4.65 KiB (0%)
    Title                       : Forzados-SRT [CinemaniaHDD]
    Language                    : Spanish
    Default                     : Yes
    Forced                      : Yes

    Text #4
    ID                          : 8
    Format                      : UTF-8
    Codec ID                    : S_TEXT/UTF8
    Codec ID/Info               : UTF-8 Plain Text
    Duration                    : 2 h 1 min
    Bit rate                    : 81 b/s
    Count of elements           : 1581
    Stream size                 : 72.8 KiB (0%)
    Title                       : Español-SRT [CinemaniaHDD]
    Language                    : Spanish
    Default                     : No
    Forced                      : No

    Menu
    00:00:00.000                : :Chapter 01
    00:03:08.188                : :Chapter 02
    00:06:53.872                : :Chapter 03
    00:12:32.961                : :Chapter 04
    00:16:10.720                : :Chapter 05
    00:18:41.579                : :Chapter 06
    00:26:49.107                : :Chapter 07
    00:30:44.634                : :Chapter 08
    00:34:10.590                : :Chapter 09
    00:39:22.402                : :Chapter 10
    00:41:48.506                : :Chapter 11
    00:44:08.312                : :Chapter 12
    00:48:10.012                : :Chapter 13
    00:52:48.957                : :Chapter 14
    00:56:01.525                : :Chapter 15
    01:00:10.690                : :Chapter 16
    01:03:56.750                : :Chapter 17
    01:07:02.852                : :Chapter 18
    01:09:53.815                : :Chapter 19
    01:14:44.230                : :Chapter 20
    01:17:20.427                : :Chapter 21
    01:22:43.250                : :Chapter 22
    01:24:49.710                : :Chapter 23
    01:28:14.915                : :Chapter 24
    01:31:36.324                : :Chapter 25
    01:35:20.006                : :Chapter 26
    01:40:17.803                : :Chapter 27
    01:43:22.696                : :Chapter 28
    01:46:48.986                : :Chapter 29
    01:52:50.430                : :Chapter 30
    01:55:17.536                : :Chapter 31
    01:58:11.126                : :Chapter 32
    02:01:50.595                : :Chapter 33

  • Peso: 8.64 GiB

Sinopsis

Descargar Red de mentiras (2008) Full HD 1080p Latino. Roger Ferris es el mejor hombre de la CIA. Las misiones que le encargan lo llevan desde Oriente Medio a Washington. Cada uno de sus pasos depende de una voz al otro lado de una línea telefónica segura: la del veterano de la CIA Ed Hoffman, responsable de las operaciones de la Agencia en todo Oriente Medio. Trabajando desde un móvil en su confortable casa, Hoffman sigue la pista de un líder terrorista que ha dirigido una campaña de bombardeos eludiendo a la red de inteligencia más sofisticada del mundo. Para sacar a los terroristas de su madriguera, Ferris tendrá que entrar en su turbio mundo. Adaptación de la novela «Body of Lies», de David Ignatius, antiguo columnista de asuntos internacionales del diario «The Washington Post».

Audio Español Latino AC3 5.1 + EAC3 5.1 Amzn – Ingles DTS 5.1 Bluray

Ficha técnica

Video trailer de la película

Enlaces de descarga

Rip de Bluray

Descargar Red de mentiras (2008) Full HD 1080p Latino




Aportes de DPeliculasHDmega la pass es:dpeliculashdmega.org Aportes de CinemaniaHD la pass es:cinemaniahdd.com Aportes recientes:cinemaniahdd.net

Películas relacionadas

descargar Red de mentiras (2008) Full HD 1080p Latino Full 1080p 1080p gratis, Red de mentiras (2008) Full HD 1080p Latino Full 1080p mega 1 link, Red de mentiras (2008) Full HD 1080p Latino Full 1080p pelicula completa, descargar Red de mentiras (2008) Full HD 1080p Latino Full 1080p gratis en mega.

Red de mentiras (2008) Full HD 1080p Latino pelicula full hd, Red de mentiras (2008) Full HD 1080p Latino mega latino, Red de mentiras (2008) Full HD 1080p Latino 4k latino, Red de mentiras (2008) Full HD 1080p Latino pelicula completa, Red de mentiras (2008) Full HD 1080p Latino descargar gratis, descargar Red de mentiras (2008) Full HD 1080p Latino pelicula latino, Red de mentiras (2008) Full HD 1080p Latino 1 link mega, Red de mentiras (2008) Full HD 1080p Latino 1 link google drive, Red de mentiras (2008) Full HD 1080p Latino hd 1080p latino.
Comentarios 0