×

¿Problemas para descargar con Mozilla, EDGE? Deshabilita la opción "Abrir vinculos en una pestaña nueva" tal como lo muestra ésta imagen.

Bodas De Plomo (2022) HD 1080p Latino

299 vistas

Información de Bodas De Plomo (2022) HD 1080p Latino

Datos de la película

  • Calidad: 1080p
  • Audio: Español Latino AC3 5.1 WEB-DL - Ingles AC3 5.1 BLURAY
  • Subtitulos: Español Latino SRT- FORZADOS SRT
  • Resolución: 1920x804p
  • Formato: MKV
  • Codec: H.264
  • Encoder: Melkor
  • Mediainfo: Clic para Mostrar Datos Ver
  • Bodas De Plomo (2022) HD 1080p Latino.mkv
    Format                      : Matroska
    Format version              : Version 4
    File size                   : 3.18 GiB
    Duration                    : 1 h 40 min
    Overall bit rate            : 4 531 kb/s
    Movie name                  : Shotgun Wedding (2022) CinemaniaHDD.Net
    Encoded date                : UTC 2023-07-18 18:04:22
    Writing application         : mkvmerge v56.1.0 ('My Friend') 64-bit
    Writing library             : libebml v1.4.2 + libmatroska v1.6.4
    Attachments                 : CINEMANIAHD.png
    Site                        : CinemaniaHDD.Net
    Uploader                    : Melkor

    Video
    ID                          : 1
    Format                      : AVC
    Format/Info                 : Advanced Video Codec
    Format profile              : High@L4.1
    Format settings             : CABAC / 5 Ref Frames
    Format settings, CABAC      : Yes
    Format settings, Reference  : 5 frames
    Codec ID                    : V_MPEG4/ISO/AVC
    Duration                    : 1 h 40 min
    Bit rate                    : 3 500 kb/s
    Width                       : 1 920 pixels
    Height                      : 804 pixels
    Display aspect ratio        : 2.40:1
    Frame rate mode             : Constant
    Frame rate                  : 23.976 (24000/1001) FPS
    Color space                 : YUV
    Chroma subsampling          : 4:2:0
    Bit depth                   : 8 bits
    Scan type                   : Progressive
    Bits/(Pixel*Frame)          : 0.095
    Stream size                 : 2.42 GiB (76%)
    Title                       : HD1080p [CinemaniaHDD]
    Writing library             : x264 core 163 r3059 b684ebe0
    Encoding settings           : cabac=1 / ref=5 / deblock=1:-1:-1 / analyse=0x3:0x133 / me=umh / subme=9 / psy=1 / psy_rd=1.00:0.15 / mixed_ref=1 / me_range=16 / chroma_me=1 / trellis=2 / 8x8dct=1 / cqm=0 / deadzone=21,11 / fast_pskip=1 / chroma_qp_offset=-3 / threads=24 / lookahead_threads=2 / sliced_threads=0 / nr=0 / decimate=1 / interlaced=0 / bluray_compat=0 / constrained_intra=0 / bframes=3 / b_pyramid=2 / b_adapt=2 / b_bias=0 / direct=3 / weightb=1 / open_gop=0 / weightp=2 / keyint=240 / keyint_min=24 / scenecut=40 / intra_refresh=0 / rc_lookahead=60 / rc=abr / mbtree=1 / bitrate=3500 / ratetol=1.0 / qcomp=0.60 / qpmin=0 / qpmax=69 / qpstep=4 / vbv_maxrate=62500 / vbv_bufsize=78125 / nal_hrd=none / filler=0 / ip_ratio=1.40 / aq=1:1.00
    Default                     : Yes
    Forced                      : Yes
    Color range                 : Limited
    Color primaries             : BT.709
    Transfer characteristics    : BT.709
    Matrix coefficients         : BT.709

    Audio #1
    ID                          : 2
    Format                      : AC-3
    Format/Info                 : Audio Coding 3
    Commercial name             : Dolby Digital
    Codec ID                    : A_AC3
    Duration                    : 1 h 40 min
    Bit rate mode               : Constant
    Bit rate                    : 640 kb/s
    Channel(s)                  : 6 channels
    Channel layout              : L R C LFE Ls Rs
    Sampling rate               : 48.0 kHz
    Frame rate                  : 31.250 FPS (1536 SPF)
    Compression mode            : Lossy
    Delay relative to video     : -5 ms
    Stream size                 : 461 MiB (14%)
    Title                       : Español Latino [CinemaniaHDD]
    Language                    : Spanish
    Service kind                : Complete Main
    Default                     : Yes
    Forced                      : Yes

    Audio #2
    ID                          : 3
    Format                      : AC-3
    Format/Info                 : Audio Coding 3
    Commercial name             : Dolby Digital
    Codec ID                    : A_AC3
    Duration                    : 1 h 40 min
    Bit rate mode               : Constant
    Bit rate                    : 448 kb/s
    Channel(s)                  : 6 channels
    Channel layout              : L R C LFE Ls Rs
    Sampling rate               : 48.0 kHz
    Frame rate                  : 31.250 FPS (1536 SPF)
    Compression mode            : Lossy
    Delay relative to video     : -5 ms
    Stream size                 : 322 MiB (10%)
    Title                       : Ingles [CinemaniaHDD]
    Language                    : English
    Service kind                : Complete Main
    Default                     : No
    Forced                      : No

    Text #1
    ID                          : 4
    Format                      : UTF-8
    Codec ID                    : S_TEXT/UTF8
    Codec ID/Info               : UTF-8 Plain Text
    Duration                    : 1 h 23 min
    Bit rate                    : 1 b/s
    Count of elements           : 36
    Stream size                 : 1.17 KiB (0%)
    Title                       : Forzados-SRT [CinemaniaHDD]
    Language                    : Spanish
    Default                     : Yes
    Forced                      : Yes

    Text #2
    ID                          : 5
    Format                      : UTF-8
    Codec ID                    : S_TEXT/UTF8
    Codec ID/Info               : UTF-8 Plain Text
    Duration                    : 1 h 34 min
    Bit rate                    : 62 b/s
    Count of elements           : 1453
    Stream size                 : 43.1 KiB (0%)
    Title                       : Español-SRT [CinemaniaHDD]
    Language                    : Spanish
    Default                     : No
    Forced                      : No

    Text #3
    ID                          : 6
    Format                      : UTF-8
    Codec ID                    : S_TEXT/UTF8
    Codec ID/Info               : UTF-8 Plain Text
    Duration                    : 1 h 33 min
    Bit rate                    : 74 b/s
    Count of elements           : 1683
    Stream size                 : 51.1 KiB (0%)
    Title                       : Ingles [CinemaniaHDD]
    Language                    : English
    Default                     : No
    Forced                      : No

    Menu
    00:00:00.000                : Chapter 01
    00:08:53.283                : Chapter 02
    00:18:06.585                : Chapter 03
    00:24:41.021                : Chapter 04
    00:34:21.768                : Chapter 05
    00:43:40.034                : Chapter 06
    00:50:27.399                : Chapter 07
    00:58:07.192                : Chapter 08
    01:04:48.468                : Chapter 09
    01:11:35.333                : Chapter 10
    01:20:31.243                : Chapter 11
    01:30:08.278                : Chapter 12

  • Peso: 3.18 GiB

Sinopsis

Descargar Bodas De Plomo (2022) HD 1080p Latino. Darcy (Jennifer Lopez) y Tom (Josh Duhamel) viajan con sus familias para celebrar su boda, pero cuando todos los invitados son tomados como rehenes, la frase «hasta que la muerte nos separe» adquiere un nuevo significado en esta desternillante aventura cargada de adrenalina en la que Darcy y Tom tendrán que salvar a sus seres queridos, si no se matan entre ellos antes.

Ficha técnica

Video trailer de la película

Enlaces de descarga

Rip de Bluray

Descargar Bodas De Plomo (2022) HD 1080p Latino




Aportes de DPeliculasHDmega la pass es:dpeliculashdmega.org Aportes de CinemaniaHD la pass es:cinemaniahdd.com Aportes recientes:cinemaniahdd.net
Guardado en : Acción , Comedia , HD 1080p , Romance

Películas relacionadas

  • Spider-Man 2 (2004) REMUX 4K HDR Latino – CMHDD

    Spider-Man 2 (2004) REMUX 4K HDR Latino – CMHDD

    2004
    Spider-Man 2 (2004) REMUX 4K HDR Latino – CMHDD

    2h 7m 2004

    Han pasado dos años desde que el tranquilo Peter Parker dejó a Mary Jane Watson, su gran amor, y decidió...

    Director: Trudy Ramirez

    Género: Acción

    Actores: Zachry Rogers

  • Un Heroe Anonimo (2024) 1080p Latino-CMHDD

    Un Heroe Anonimo (2024) 1080p Latino-CMHDD

    2024
    Un Heroe Anonimo (2024) 1080p Latino-CMHDD

    1h 53m 2024

    Descargar Un Heroe Anonimo (2024) 1080p Latino-CMHDD. Basada en una extraordinaria historia real, la...

    Director: Richard Ramsey

    Género: Drama

    Actores: Vin Morreale Jr

  • Scary Movie 5 (2013) REMUX 1080p Latino – CMHDD

    Scary Movie 5 (2013) REMUX 1080p Latino – CMHDD

    2013
    Scary Movie 5 (2013) REMUX 1080p Latino – CMHDD

    1h 28m 2013

    Los felizmente casados Dan y Jody empiezan a observar algunos fenómenos extraños en su casa tras volver...

    Director: Tim Fitzgerald

    Género: Comedia

    Actores: Zoe Pessin

  • Scary Movie 4 (2006) REMUX 1080p Latino – CMHDD

    Scary Movie 4 (2006) REMUX 1080p Latino – CMHDD

    2006
    Scary Movie 4 (2006) REMUX 1080p Latino – CMHDD

    1h 29m 2006

    Una nueva entrega de la franquicia que parodia los últimos títulos del cine americano. Esta vez, la...

    Director: Steve Eathorne

    Género: Comedia

    Actores: YoungBloodZ

  • Scary Movie 3 (2003) REMUX 1080p Latino – CMHDD

    Scary Movie 3 (2003) REMUX 1080p Latino – CMHDD

    2003
    Scary Movie 3 (2003) REMUX 1080p Latino – CMHDD

    1h 25m 2003

    Después de haberlo pasado fatal -eso siempre según se mire- en las dos anteriores entregas, Cindy Campbell...

    Director: Wendy L. Adjoury

    Género: Comedia

    Actores: William S. Taylor

descargar Bodas De Plomo (2022) HD 1080p Latino 1080p 1080p gratis, Bodas De Plomo (2022) HD 1080p Latino 1080p mega 1 link, Bodas De Plomo (2022) HD 1080p Latino 1080p pelicula completa, descargar Bodas De Plomo (2022) HD 1080p Latino 1080p gratis en mega.

Bodas De Plomo (2022) HD 1080p Latino pelicula full hd, Bodas De Plomo (2022) HD 1080p Latino mega latino, Bodas De Plomo (2022) HD 1080p Latino 4k latino, Bodas De Plomo (2022) HD 1080p Latino pelicula completa, Bodas De Plomo (2022) HD 1080p Latino descargar gratis, descargar Bodas De Plomo (2022) HD 1080p Latino pelicula latino, Bodas De Plomo (2022) HD 1080p Latino 1 link mega, Bodas De Plomo (2022) HD 1080p Latino 1 link google drive, Bodas De Plomo (2022) HD 1080p Latino hd 1080p latino.
Comentarios 0